<?xml version="1.0" standalone="no"?>
<!DOCTYPE svg PUBLIC "-//W3C//DTD SVG 1.1//EN" "http://www.w3.org/Graphics/SVG/1.1/DTD/svg11.dtd" >
<svg xmlns="http://www.w3.org/2000/svg">
<metadata>
<json>
<![CDATA[
{
	"fontFamily": "property-icons",
	"majorVersion": 1,
	"minorVersion": 0,
	"version": "Version 1.0",
	"fontId": "property-icons",
	"psName": "property-icons",
	"subFamily": "Regular",
	"fullName": "property-icons",
	"description": "Font generated by IcoMoon."
}
]]>
</json>
</metadata>
<defs>
<font id="property-icons" horiz-adv-x="1024">
<font-face units-per-em="1024" ascent="960" descent="-64" />
<missing-glyph horiz-adv-x="1024" />
<glyph unicode="&#x20;" horiz-adv-x="512" d="" />
<glyph unicode="&#xe900;" glyph-name="checkbox" data-tags="checkbox" d="M278.386 556.25l-79.596-79.596 256.365-256.365 569.707 569.707-79.596 79.596-490.244-489.978zM910.775 49.159h-797.616v797.683h569.707v113.955h-569.707c-62.86-0.188-113.767-51.095-113.955-113.936v-797.701c0.188-62.86 51.095-113.767 113.936-113.955h797.701c62.86 0.188 113.767 51.095 113.955 113.936v455.837h-113.955v-455.819z" />
<glyph unicode="&#xe901;" glyph-name="play-audio" data-tags="play-audio" horiz-adv-x="828" d="M-0.72 959.346v-1022.691l829.669 511.019zM580.31 447.673l-452.588-278.737v558.129z" />
<glyph unicode="&#xe902;" glyph-name="search" data-tags="search" d="M1010 74.6l-199.4 199.4c-9 9-21.2 14-34 14h-32.6c55.2 70.6 88 159.4 88 256 0 229.8-186.2 416-416 416s-416-186.2-416-416 186.2-416 416-416c96.6 0 185.4 32.8 256 88v-32.6c0-12.8 5-25 14-34l199.4-199.4c18.8-18.8 49.2-18.8 67.8 0l56.6 56.6c18.8 18.8 18.8 49.2 0.2 68zM416 288c-141.4 0-256 114.4-256 256 0 141.4 114.4 256 256 256 141.4 0 256-114.4 256-256 0-141.4-114.4-256-256-256z" />
<glyph unicode="&#xe903;" glyph-name="file-alt" data-tags="file-alt" horiz-adv-x="768" d="M576 464v-56c0-13.2-10.8-24-24-24h-336c-13.2 0-24 10.8-24 24v56c0 13.2 10.8 24 24 24h336c13.2 0 24-10.8 24-24zM552 320h-336c-13.2 0-24-10.8-24-24v-56c0-13.2 10.8-24 24-24h336c13.2 0 24 10.8 24 24v56c0 13.2-10.8 24-24 24zM768 696.2v-664.2c0-53-43-96-96-96h-576c-53 0-96 43-96 96v832c0 53 43 96 96 96h408.2c25.4 0 49.8-10.2 67.8-28.2l167.8-167.8c18-17.8 28.2-42.4 28.2-67.8zM512 856.2v-152.2h152.2l-152.2 152.2zM672 32v576h-208c-26.6 0-48 21.4-48 48v208h-320v-832h576z" />
<glyph unicode="&#xe904;" glyph-name="chevron-circle-down" data-tags="chevron-circle-down" d="M1008 448c0-274-222-496-496-496s-496 222-496 496 222 496 496 496 496-222 496-496zM546 220.2l271 271c18.8 18.8 18.8 49.2 0 67.8l-34 34c-18.8 18.8-49.2 18.8-67.8 0l-203.2-203.2-203.2 203.2c-18.8 18.8-49.2 18.8-67.8 0l-34-34c-18.8-18.8-18.8-49.2 0-67.8l271-271c18.8-18.8 49.2-18.8 68 0z" />
<glyph unicode="&#xe905;" glyph-name="chevron-circle-left" data-tags="chevron-circle-left" d="M512-48c-274 0-496 222-496 496s222 496 496 496 496-222 496-496-222-496-496-496zM284.2 414l271-271c18.8-18.8 49.2-18.8 67.8 0l34 34c18.8 18.8 18.8 49.2 0 67.8l-203.2 203.2 203.2 203.2c18.8 18.8 18.8 49.2 0 67.8l-34 34c-18.8 18.8-49.2 18.8-67.8 0l-271-271c-18.8-18.8-18.8-49.2 0-68z" />
<glyph unicode="&#xe906;" glyph-name="chevron-circle-right" data-tags="chevron-circle-right" d="M512 944c274 0 496-222 496-496s-222-496-496-496-496 222-496 496 222 496 496 496zM739.8 482l-271 271c-18.8 18.8-49.2 18.8-67.8 0l-34-34c-18.8-18.8-18.8-49.2 0-67.8l203.2-203.2-203.2-203.2c-18.8-18.8-18.8-49.2 0-67.8l34-34c18.8-18.8 49.2-18.8 67.8 0l271 271c18.8 18.8 18.8 49.2 0 68z" />
<glyph unicode="&#xe907;" glyph-name="chevron-circle-up" data-tags="chevron-circle-up" d="M16 448c0 274 222 496 496 496s496-222 496-496-222-496-496-496-496 222-496 496zM478 675.8l-271-271c-18.8-18.8-18.8-49.2 0-67.8l34-34c18.8-18.8 49.2-18.8 67.8 0l203.2 203.2 203.2-203.2c18.8-18.8 49.2-18.8 67.8 0l34 34c18.8 18.8 18.8 49.2 0 67.8l-271 271c-18.8 18.8-49.2 18.8-68 0z" />
<glyph unicode="&#xe908;" glyph-name="arrow-down" data-tags="arrow-down" horiz-adv-x="896" d="M826.2 515l44.4-44.4c18.8-18.8 18.8-49.2 0-67.8l-388.6-388.8c-18.8-18.8-49.2-18.8-67.8 0l-388.8 388.8c-18.8 18.8-18.8 49.2 0 67.8l44.4 44.4c19 19 50 18.6 68.6-0.8l229.6-241v574.8c0 26.6 21.4 48 48 48h64c26.6 0 48-21.4 48-48v-574.8l229.6 241c18.6 19.6 49.6 20 68.6 0.8z" />
<glyph unicode="&#xe909;" glyph-name="arrow-left" data-tags="arrow-left" horiz-adv-x="896" d="M515 69.8l-44.4-44.4c-18.8-18.8-49.2-18.8-67.8 0l-388.8 388.6c-18.8 18.8-18.8 49.2 0 67.8l388.8 388.8c18.8 18.8 49.2 18.8 67.8 0l44.4-44.4c19-19 18.6-50-0.8-68.6l-241-229.6h574.8c26.6 0 48-21.4 48-48v-64c0-26.6-21.4-48-48-48h-574.8l241-229.6c19.6-18.6 20-49.6 0.8-68.6z" />
<glyph unicode="&#xe90a;" glyph-name="arrow-right" data-tags="arrow-right" horiz-adv-x="896" d="M381 826.2l44.4 44.4c18.8 18.8 49.2 18.8 67.8 0l388.8-388.6c18.8-18.8 18.8-49.2 0-67.8l-388.8-388.8c-18.8-18.8-49.2-18.8-67.8 0l-44.4 44.4c-19 19-18.6 50 0.8 68.6l241 229.6h-574.8c-26.6 0-48 21.4-48 48v64c0 26.6 21.4 48 48 48h574.8l-241 229.6c-19.6 18.6-20 49.6-0.8 68.6z" />
<glyph unicode="&#xe90b;" glyph-name="arrow-up" data-tags="arrow-up" horiz-adv-x="896" d="M69.8 381l-44.4 44.4c-18.8 18.8-18.8 49.2 0 67.8l388.6 388.8c18.8 18.8 49.2 18.8 67.8 0l388.6-388.6c18.8-18.8 18.8-49.2 0-67.8l-44.4-44.4c-19-19-50-18.6-68.6 0.8l-229.4 240.8v-574.8c0-26.6-21.4-48-48-48h-64c-26.6 0-48 21.4-48 48v574.8l-229.6-241c-18.6-19.6-49.6-20-68.6-0.8z" />
<glyph unicode="&#xe90c;" glyph-name="whatsapp-square" data-tags="whatsapp-square" horiz-adv-x="896" d="M448 714.4c-145.4 0-263.6-118.2-263.8-263.6 0-49.8 14-98.4 40.4-140.2l6.2-10-26.6-97.2 99.8 26.2 9.6-5.8c40.4-24 86.8-36.8 134.2-36.8h0.2c145.2 0 266.6 118.2 266.6 263.6 0 70.4-30.4 136.6-80.2 186.4-50 50-116 77.4-186.4 77.4zM603 337.6c-6.6-18.6-38.2-35.4-53.4-37.6-25.2-3.8-44.8-1.8-95 19.8-79.4 34.4-131.4 114.4-135.4 119.6s-32.4 43-32.4 82 20.4 58.2 27.8 66.2c7.2 8 15.8 10 21.2 10 5.2 0 10.6 0 15.2-0.2 4.8-0.2 11.4 1.8 17.8-13.6 6.6-15.8 22.4-54.8 24.4-58.8s3.4-8.6 0.6-13.8c-15.2-30.4-31.4-29.2-23.2-43.2 30.6-52.6 61.2-70.8 107.8-94.2 8-4 12.6-3.4 17.2 2 4.6 5.2 19.8 23.2 25 31 5.2 8 10.6 6.6 17.8 4s46.2-21.8 54.2-25.8 13.2-6 15.2-9.2c1.8-3.8 1.8-19.8-4.8-38.2zM800 896h-704c-53 0-96-43-96-96v-704c0-53 43-96 96-96h704c53 0 96 43 96 96v704c0 53-43 96-96 96zM447.8 133.6c-53.2 0-105.4 13.4-151.6 38.6l-168.2-44.2 45 164.4c-27.8 48-42.4 102.6-42.4 158.6 0.2 174.8 142.4 317 317.2 317 84.8 0 164.4-33 224.4-93 59.8-60 95.8-139.6 95.8-224.4 0-174.8-145.4-317-320.2-317z" />
<glyph unicode="&#xe90d;" glyph-name="whatsapp" data-tags="whatsapp" horiz-adv-x="896" d="M761.8 765.8c-83.8 84-195.4 130.2-314 130.2-244.8 0-444-199.2-444-444 0-78.2 20.4-154.6 59.2-222l-63-230 235.4 61.8c64.8-35.4 137.8-54 212.2-54h0.2c244.6 0 448.2 199.2 448.2 444 0 118.6-50.4 230-134.2 314zM447.8 82.6c-66.4 0-131.4 17.8-188 51.4l-13.4 8-139.6-36.6 37.2 136.2-8.8 14c-37 58.8-56.4 126.6-56.4 196.4 0 203.4 165.6 369 369.2 369 98.6 0 191.2-38.4 260.8-108.2s112.4-162.4 112.2-261c0-203.6-169.8-369.2-373.2-369.2zM650.2 359c-11 5.6-65.6 32.4-75.8 36-10.2 3.8-17.6 5.6-25-5.6s-28.6-36-35.2-43.6c-6.4-7.4-13-8.4-24-2.8-65.2 32.6-108 58.2-151 132-11.4 19.6 11.4 18.2 32.6 60.6 3.6 7.4 1.8 13.8-1 19.4s-25 60.2-34.2 82.4c-9 21.6-18.2 18.6-25 19-6.4 0.4-13.8 0.4-21.2 0.4s-19.4-2.8-29.6-13.8c-10.2-11.2-38.8-38-38.8-92.6s39.8-107.4 45.2-114.8c5.6-7.4 78.2-119.4 189.6-167.6 70.4-30.4 98-33 133.2-27.8 21.4 3.2 65.6 26.8 74.8 52.8s9.2 48.2 6.4 52.8c-2.6 5-10 7.8-21 13.2z" />
<glyph unicode="&#xe90e;" glyph-name="tumblr-square" data-tags="tumblr-square" horiz-adv-x="896" d="M800 896h-704c-53 0-96-43-96-96v-704c0-53 43-96 96-96h704c53 0 96 43 96 96v704c0 53-43 96-96 96zM635.4 167.6c-17-18.2-62.4-39.6-121.8-39.6-151 0-183.8 111-183.8 175.8v180h-59.4c-6.8 0-12.4 5.6-12.4 12.4v85c0 9 5.6 17 14.2 20 77.6 27.4 101.8 95 105.4 146.4 1 13.8 8.2 20.4 20 20.4h88.6c6.8 0 12.4-5.6 12.4-12.4v-144h103.8c6.8 0 12.4-5.6 12.4-12.4v-102.2c0-6.8-5.6-12.4-12.4-12.4h-104.2v-166.6c0-42.8 29.6-67 85-44.8 6 2.4 11.2 4 16 2.8 4.4-1 7.2-4.2 9.2-9.8l27.6-80.4c2-6.4 4-13.4-0.6-18.2z" />
<glyph unicode="&#xe90f;" glyph-name="tumblr" data-tags="tumblr" horiz-adv-x="640" d="M619.6-0.6c-27.2-29-100-63.4-194.8-63.4-241.6 0-294 177.6-294 281.2v288h-95c-11 0-20 9-20 20v136c0 14.4 9 27.2 22.6 32 124 43.6 163 152 168.6 234.2 1.6 22 13 32.6 32.2 32.6h141.8c11 0 20-9 20-20v-230.4h166c11 0 20-8.8 20-19.8v-163.4c0-11-9-20-20-20h-166.8v-266.4c0-68.4 47.4-107.2 136-71.6 9.6 3.8 18 6.4 25.4 4.4 7-1.8 11.6-6.8 14.8-15.8l44-128.6c3.6-10 6.6-21.2-0.8-29z" />
<glyph unicode="&#xe910;" glyph-name="youtube-square" data-tags="youtube-square" horiz-adv-x="896" d="M373.6 555.8l190.4-108.2-190.4-108.2v216.4zM896 800v-704c0-53-43-96-96-96h-704c-53 0-96 43-96 96v704c0 53 43 96 96 96h704c53 0 96-43 96-96zM812 447.4s0 119.2-15.2 176.4c-8.4 31.6-33 56.4-64.4 64.8-56.6 15.4-284.4 15.4-284.4 15.4s-227.8 0-284.4-15.4c-31.4-8.4-56-33.2-64.4-64.8-15.2-57-15.2-176.4-15.2-176.4s0-119.2 15.2-176.4c8.4-31.6 33-55.4 64.4-63.8 56.6-15.2 284.4-15.2 284.4-15.2s227.8 0 284.4 15.4c31.4 8.4 56 32.2 64.4 63.8 15.2 57 15.2 176.2 15.2 176.2z" />
<glyph unicode="&#xe911;" glyph-name="youtube" data-tags="youtube" horiz-adv-x="1152" d="M1099.31 711.834c-12.562 47.3-49.574 84.552-96.568 97.194-85.18 22.972-426.742 22.972-426.742 22.972s-341.56 0-426.742-22.972c-46.994-12.644-84.006-49.894-96.568-97.194-22.824-85.734-22.824-264.61-22.824-264.61s0-178.876 22.824-264.61c12.562-47.3 49.574-83 96.568-95.642 85.182-22.972 426.742-22.972 426.742-22.972s341.56 0 426.742 22.972c46.994 12.642 84.006 48.342 96.568 95.642 22.824 85.734 22.824 264.61 22.824 264.61s0 178.876-22.824 264.61zM464.29 284.818v324.812l285.478-162.41-285.478-162.402z" />
<glyph unicode="&#xe912;" glyph-name="skype" data-tags="skype" horiz-adv-x="896" d="M849.4 360.4c5.8 28 9.4 57.8 9.4 87.6 0 227-183.8 410.6-410.6 410.6-29.8 0-59.4-3.4-87.6-9.4-38 29.4-85.2 46.8-136.6 46.8-123.6 0-224-100.4-224-224 0-51.4 17.4-98.6 46.6-136.4-5.8-28-9.4-57.8-9.4-87.6 0-227 183.8-410.6 410.6-410.6 29.8 0 59.4 3.4 87.6 9.4 38-29.2 85.2-46.6 136.4-46.6 123.6 0 224 100.4 224 224 0.2 51.2-17.2 98.4-46.4 136.2zM460.2 177.4c-131.2 0-241 58.4-241 130 0 32 18 61.2 59 61.2 62.4 0 68.2-89.8 176.2-89.8 51.4 0 84.6 22.8 84.6 52.6 0 37.4-32 43.2-84 56-125 30.8-235.6 44-235.6 174.4 0 118.4 117.2 162.2 218.2 162.2 110.2 0 221.6-43.8 221.6-110.8 0-33.8-22.8-63.6-60.6-63.6-56.6 0-58.4 67-150 67-51.4 0-84-14-84-45 0-39.6 41.6-43.6 138.2-66 82.8-18.6 181.4-53.6 181.4-155.2 0-118.2-114.2-173-224-173z" />
<glyph unicode="&#xe913;" glyph-name="google-drive" data-tags="google-drive" d="M678 330.2l-327.2 565.8h322.4l327.2-565.8h-322.4zM403 283l-161.2-283h621l161.2 283h-621zM308.2 825.2l-308.2-542.2 161.2-283 312.8 542.4-165.8 282.8z" />
<glyph unicode="&#xe914;" glyph-name="google-play" data-tags="google-play" d="M650.6 491.4l-441.4 442.6 561.6-322.4-120.2-120.2zM94 960c-26-13.6-43.4-38.4-43.4-70.6v-882.6c0-32.2 17.4-57 43.4-70.6l513.2 512-513.2 511.8zM944.4 508.8l-117.8 68.2-131.4-129 131.4-129 120.2 68.2c36 28.6 36 93-2.4 121.6zM209.2-38l561.6 322.4-120.2 120.2-441.4-442.6z" />
<glyph unicode="&#xe915;" glyph-name="google-plus-g" data-tags="google-plus-g" horiz-adv-x="1280" d="M772.122 503.008c3.668-19.384 6.286-38.768 6.286-63.912 0-219.506-147.21-375.096-368.808-375.096-212.168 0-384 171.83-384 384s171.832 384 384 384c103.728 0 190.166-37.718 257.222-100.584l-104.252-100.060c-28.29 27.242-78.056 59.198-152.97 59.198-130.968 0-237.84-108.442-237.84-242.554s106.872-242.554 237.84-242.554c151.922 0 209.026 109.49 217.93 165.546h-217.93v132.018h362.522zM1142.934 490.134v111.466h-112.002v-111.466h-111.466v-112.002h111.466v-111.466h112.002v111.466h111.466v112.002h-111.466z" />
<glyph unicode="&#xe916;" glyph-name="google-plus-square" data-tags="google-plus-square" horiz-adv-x="896" d="M800 896h-704c-53 0-96-43-96-96v-704c0-53 43-96 96-96h704c53 0 96 43 96 96v704c0 53-43 96-96 96zM328 248c-110.6 0-200 89.4-200 200s89.4 200 200 200c54 0 99-19.6 134-52.4l-54.2-52.2c-14.8 14.2-40.6 30.8-79.6 30.8-68.2 0-123.8-56.4-123.8-126.4 0-69.8 55.6-126.4 123.8-126.4 79.2 0 108.8 57 113.6 86.2h-113.8v68.8h188.8c2-10 3.2-20.2 3.2-33.2 0-114.2-76.6-195.2-192-195.2zM768 411.6h-58v-58h-58.4v58h-58v58.4h58v58h58.4v-58h58v-58.4z" />
<glyph unicode="&#xe917;" glyph-name="google-plus" data-tags="google-plus" horiz-adv-x="992" d="M496 944c-273.8 0-496-222.2-496-496s222.2-496 496-496 496 222.2 496 496-222.2 496-496 496zM354.6 200c-137.6 0-248 111-248 248s110.4 248 248 248c62.6 0 120.2-22 166-64.6l-67.2-65.2c-26.4 25.8-62.6 38.2-98.8 38.2-85.8 0-154.4-71-154.4-156.2s68.4-156.2 154.4-156.2c65.2 0 129.8 38.2 140.2 106.6h-140.2v85.2h233.8c2.6-13.6 3.8-27.2 3.8-41.4 0-141.6-95-242.4-237.6-242.4zM815 412.4v-71h-71v71h-71v71h71v71h71v-71h70.4v-71h-70.4z" />
<glyph unicode="&#xe918;" glyph-name="google-wallet" data-tags="google-wallet" horiz-adv-x="896" d="M313.6 706.4c75.2-121.2 128.4-226.2 168.6-325-16.6-67.6-37.6-133-62.6-196.6-26.4 104.6-53 202.6-112 297 13 72.8 4.6 147.2 6 224.6zM218.6 560h-186.4c-13 0-21-15-13-25.4 84.4-108.6 143.4-235.6 183.4-374.6h207c-32.4 139.4-77.4 267.4-165 387-6 8-16 13-26 13zM314.2 736c137-216 260-469 276.4-736h227.4c-24 276-136.8 530-286.4 736h-217.4zM817.8 873c-3.6 13.6-16.4 23-30.4 23h-176.6c-10.6 0-18-10-15.6-20.6 26.4-93 44.6-191 53-292 96.4-172.4 159.4-356.6 181.2-541.6 31.6 121 50.6 267 50.6 406 0 147.2-24.2 290.2-62.2 425.2z" />
<glyph unicode="&#xe919;" glyph-name="google" data-tags="google" horiz-adv-x="976" d="M976 436.4c0-283-193.8-484.4-480-484.4-274.4 0-496 221.6-496 496s221.6 496 496 496c133.6 0 246-49 332.6-129.8l-135-129.8c-176.6 170.4-505 42.4-505-236.4 0-173 138.2-313.2 307.4-313.2 196.4 0 270 140.8 281.6 213.8h-281.6v170.6h472.2c4.6-25.4 7.8-49.8 7.8-82.8z" />
<glyph unicode="&#xe91a;" glyph-name="soundcloud" data-tags="soundcloud" horiz-adv-x="1280" d="M222.8 447.4l11.6-130-11.6-136.6c-0.6-5-4.4-8.8-8.8-8.8s-8.4 3.8-8.4 8.8l-11.2 136.6 11.2 130c0 4.4 3.8 8.4 8.4 8.4 4.4 0 8.2-4 8.8-8.4zM265.6 538.6c-5.6 0-9.4-4.4-10-10l-10-211.2 10-136.6c0.6-5.6 4.4-10 10-10 5 0 9.4 4.4 9.4 10l11.6 136.6-11.6 211.2c0 5.6-4.4 10-9.4 10zM316.6 586.8c-6.2 0-10.6-4.4-11.2-10.6l-8.8-260 8.8-135.6c0.6-6.2 5-10.6 11.2-10.6 5.6 0 10.6 4.4 10.6 10.6l10.6 135.6-10.6 260c0 6.2-5 10.6-10.6 10.6zM14.4 393.6c-2.8 0-4.4-2.2-5-5l-9.4-71.2 9.4-70c0.6-2.8 2.2-5 5-5s4.4 2.2 5 5l11.2 70-11.2 71.2c-0.6 2.8-2.2 5-5 5zM61.6 437.4c-2.8 0-5-2.2-5-5l-12.8-115 12.8-112.2c0-3.4 2.2-5.6 5-5.6s5 2.2 5.6 5l14.4 112.8-14.4 115c-0.6 2.8-2.8 5-5.6 5zM112.2 460.2c-3.4 0-6.2-2.8-6.6-6.6l-11.6-136.2 11.6-131.6c0.6-3.4 3.4-6.2 6.6-6.2 3.4 0 6.2 2.8 6.2 6.2l13.8 131.6-13.8 136.2c0 3.8-2.8 6.6-6.2 6.6zM162.8 464.6c-3.8 0-7.2-2.8-7.2-7.2l-11.6-140 11.6-135.6c0-4.4 3.4-7.2 7.2-7.2s7.2 2.8 7.8 7.2l12.8 135.6-12.8 140c-0.6 4.4-4 7.2-7.8 7.2zM645.6 686.4c-2.2 1.6-5.6 2.8-8.4 2.8-4.4 0-8.4-1.6-11.2-3.8-3.8-3.4-6.2-8.4-6.6-13.4v-1.6l-6.6-353.4 3.4-65 3.4-63.4c0.6-9.4 8.4-17.2 17.8-17.2s17.2 7.8 17.2 17.2l7.8 128.4-7.8 355c-0.8 6-4 11.6-9 14.4zM592.2 655.8c-2.8 1.6-5.6 2.8-8.8 2.8s-6.2-1.2-8.8-2.8c-4.4-2.8-7.2-7.8-7.2-13.4l-0.6-3.4-5.6-321.6s0-0.6 6.2-131.2v-0.6c0-3.4 1.2-6.6 3.4-9.4 3.4-3.8 7.8-6.2 12.8-6.2 4.4 0 8.4 2.2 11.2 5 3.4 2.8 5 6.6 5 11.2l0.6 13.4 6.2 117.2-6.6 325.6c-0.6 5.6-3.4 10.6-7.8 13.4zM369.4 610.8c-6.2 0-11.6-5.6-11.6-12.2l-8.8-281.2 8.8-134.4c0.6-6.6 5.6-11.6 11.6-11.6 6.6 0 11.6 5 12.2 11.6l10 134.4-10 281.2c-0.4 6.6-5.4 12.2-12.2 12.2zM1122.8 485.2c-21.6 0-42.2-4.4-61.2-12.2-12.8 141.6-131.6 252.8-276.6 252.8-35.6 0-70-6.6-100.6-18.8-12.2-4.4-15.6-8.8-15.6-18.4v-499.4c0-10 7.8-17.2 17.2-18.4h436.6c86.6 0 157.2 70 157.2 156.6 0.2 87.2-70.4 157.8-157 157.8zM529.4 605.8c-8.4 0-15-6.6-15.6-15.6l-6.6-273.4 6.6-131.2c0.6-8.4 7.2-15 15.6-15s15 6.6 15 15l7.8 131.2-7.8 273.4c-0.6 9-6.6 15.6-15 15.6zM422.2 621.4c-6.6 0-12.8-6.2-12.8-13.4l-7.8-290.6 7.8-133.8c0.6-7.2 6.2-12.8 12.8-12.8 7.2 0 12.8 5.6 13.4 12.8l8.8 133.8-8.8 290.6c-0.6 7.2-6.2 13.4-13.4 13.4zM475.6 614.6c-7.8 0-13.8-6.2-13.8-13.8l-7.8-283.4 7.8-132.8c0.6-7.8 6.2-13.8 13.8-13.8s13.8 6.2 13.8 13.8l8.4 132.8-8.4 283.4c0 7.8-6 13.8-13.8 13.8z" />
<glyph unicode="&#xe91b;" glyph-name="reddit-alien" data-tags="reddit-alien" d="M880.6 553c-30 0-56.4-12.4-75.8-31.8-71.4 49.4-167.6 81.2-274.2 84.6l55.4 249.6 176.4-39.6c0-43.2 35.2-78.4 78.4-78.4 44 0 79.4 36.2 79.4 79.4s-35.2 79.4-79.4 79.4c-30.8 0-57.4-18.6-70.6-44l-194.8 43.2c-9.8 2.6-19.4-4.4-22-14.2l-60.8-275.2c-105.8-4.4-201-36.2-272.6-85.6-19.4 20.2-46.8 32.6-76.8 32.6-111.2 0-147.6-149.2-45.8-200.2-3.6-15.8-5.2-32.6-5.2-49.4 0-167.6 188.8-303.4 420.6-303.4 232.8 0 421.6 135.8 421.6 303.4 0 16.8-1.8 34.4-6.2 50.2 99.8 51.2 63 199.4-47.6 199.4zM258.8 342.2c0 44 35.2 79.4 79.4 79.4 43.2 0 78.4-35.2 78.4-79.4 0-43.2-35.2-78.4-78.4-78.4-44-0.2-79.4 35.2-79.4 78.4zM687.4 155.2c-72.8-72.8-278.2-72.8-351 0-8 7-8 19.4 0 27.4 7 7 19.4 7 26.4 0 55.6-57 240-58 298 0 7 7 19.4 7 26.4 0 8.2-8 8.2-20.4 0.2-27.4zM685.8 263.6c-43.2 0-78.4 35.2-78.4 78.4 0 44 35.2 79.4 78.4 79.4 44 0 79.4-35.2 79.4-79.4-0.2-43-35.4-78.4-79.4-78.4z" />
<glyph unicode="&#xe91c;" glyph-name="reddit-square" data-tags="reddit-square" horiz-adv-x="896" d="M566.4 269c5.4-5.4 5.4-13.6 0-18.4-49-49-187.6-49.2-236.8 0-5.4 4.8-5.4 13 0 18.4 4.8 4.8 13 4.8 17.8 0 37.4-38.4 162-39.2 201 0 4.8 4.6 13.2 4.6 18 0zM383.8 376.6c0 29.8-23.8 53.6-53 53.6-29.8 0-53.6-23.8-53.6-53.6 0-29.2 23.8-53 53.6-53 29.2 0 53 23.8 53 53zM565.2 430.2c-29.2 0-53-23.8-53-53.6 0-29.2 23.8-53 53-53 29.8 0 53.6 23.8 53.6 53 0 29.8-23.8 53.6-53.6 53.6zM896 800v-704c0-53-43-96-96-96h-704c-53 0-96 43-96 96v704c0 53 43 96 96 96h704c53 0 96-43 96-96zM696.6 518.8c-20.2 0-38-8.4-51.2-21.4-48.2 33.4-113 54.8-185 57.2l37.4 168.4 119-26.8c0-29.2 23.8-53 53-53 29.8 0 53.6 24.4 53.6 53.6s-23.8 53.6-53.6 53.6c-20.8 0-38.6-12.4-47.6-29.8l-131.4 29.2c-6.6 1.8-13-3-14.8-9.6l-41-185.6c-71.4-3-135.6-24.4-183.8-57.8-13 13.6-31.6 22-51.8 22-75 0-99.6-100.8-31-135-2.4-10.8-3.6-22-3.6-33.4 0-113 127.4-204.6 283.8-204.6 157 0 284.4 91.6 284.4 204.6 0 11.4-1.2 23.2-4.2 34 67.2 34.4 42.4 134.4-32.2 134.4z" />
<glyph unicode="&#xe91d;" glyph-name="reddit" data-tags="reddit" d="M403 349c-27.6 0-49.8 22.2-49.8 49.2 0 27.6 22.2 49.8 49.8 49.8 27.2 0 49.2-22.2 49.2-49.8 0-27.2-22.2-49.2-49.2-49.2zM1008 448c0-274-222-496-496-496s-496 222-496 496 222 496 496 496 496-222 496-496zM743.4 530.4c-18.8 0-35.4-7.8-47.6-20-44.8 31-105.2 51-172.2 53.2l34.8 156.6 110.8-25c0-27.2 22.2-49.2 49.2-49.2 27.6 0 49.8 22.6 49.8 49.8s-22.2 49.8-49.8 49.8c-19.4 0-36-11.6-44.2-27.6l-122.4 27.2c-6 1.6-12.2-2.8-13.8-8.8l-38.2-172.8c-66.4-2.8-126.2-22.6-171-53.6-12.2 12.8-29.4 20.4-48.2 20.4-69.8 0-92.6-93.8-28.8-125.6-2.2-10-3.4-20.4-3.4-31 0-105.2 118.4-190.4 264-190.4 146.2 0 264.6 85.2 264.6 190.4 0 10.6-1.2 21.6-3.8 31.6 62.6 32 39.6 125-29.8 125zM605.6 298c-36.4-36.4-152.2-35.8-187.2 0-4.4 4.4-12.2 4.4-16.6 0-5-5-5-12.8 0-17.2 45.6-45.6 174.6-45.6 220.4 0 5 4.4 5 12.2 0 17.2-4.4 4.4-12.2 4.4-16.6 0zM621 448c-27.2 0-49.2-22.2-49.2-49.8 0-27.2 22.2-49.2 49.2-49.2 27.6 0 49.8 22.2 49.8 49.2 0 27.6-22 49.8-49.8 49.8z" />
<glyph unicode="&#xe91e;" glyph-name="dropbox" data-tags="dropbox" horiz-adv-x="1056" d="M528.8 727.4l-264-168.6 264-168.6-264-168.6-264.8 170.2 264.6 168.6-264.6 167 264.6 168.6 264.2-168.6zM263.2 168.6l264 168.6 264-168.6-264-168.6-264 168.6zM528.8 391.8l264 168.6-264 167.2 262.6 168.4 264.6-168.6-264.6-168.6 264.6-168.4-264.6-168.6-262.6 170z" />
<glyph unicode="&#xe91f;" glyph-name="delicious" data-tags="delicious" horiz-adv-x="896" d="M893 824c-0.8 3-1.8 6-2.8 9-1.8 5-4 9.6-6.6 14.2-2.8 4.8-6 9.6-9.4 13.8-4.2 5-8.8 9.6-13.8 13.6-2.2 1.8-4.4 3.4-6.6 5-2.6 1.8-5.2 3.4-8 4.8-3.6 2-7.2 3.6-11 5-3.4 1.4-7 2.6-10.8 3.4-7.6 2-15.8 3-24 3h-704c-53 0.2-96-42.8-96-95.8v-704c0-8.2 1-16.4 3-24 4-15.4 11.6-29.2 22-40.6 2-2.2 4.2-4.4 6.6-6.6 11.4-10.4 25.2-18 40.6-22 7.6-2 15.8-3 24-3h704c53 0 96 43 96 96v704.2c-0.2 8.2-1.2 16.4-3.2 24zM832 96c0-17.6-14.4-32-32-32h-352v384h-384v352c0 17.6 14.4 32 32 32h352v-384h384v-352z" />
<glyph unicode="&#xe920;" glyph-name="deploydog" data-tags="deploydog" d="M764.4 688h103.4v-479.2h-103.4v41.4c-39.6-49.6-105.6-48.2-147.6-29.4-52.4 23.4-88.6 76.2-88.6 143.6 0 59.6 29.6 115.8 86.6 141.6 40.4 18.2 105.4 21.2 149.6-25.8v207.8zM635 364.4c0-36.4 27.2-67 66.4-67 39.6 0 66.4 32.8 66.4 65.8 0 34.2-27.4 66.4-66.4 66.4-39.2 0-66.4-32.8-66.4-65.2zM377 688h103.4v-479.2h-103.4v41.4c-39.6-49.6-105.6-48.2-147.6-29.4-52.4 23.4-88.6 76.2-88.6 143.6 0 59.6 29.6 115.8 86.6 141.6 40.4 18.2 105.4 21.2 149.6-25.8v207.8zM247.6 364.4c0-36.4 27.2-67 66.4-67 39.6 0 66.4 32.8 66.4 65.8 0 34.2-27.4 66.4-66.4 66.4-39.4 0-66.4-32.8-66.4-65.2zM896 768c35 0 64-28.8 64-64v-512c0-35-28.8-64-64-64h-768c-35 0-64 28.8-64 64v512c0 35 28.8 64 64 64h768zM896 832h-768c-70.4 0-128-57.6-128-128v-512c0-70.4 57.6-128 128-128h768c70.4 0 128 57.6 128 128v512c0 70.4-57.6 128-128 128z" />
<glyph unicode="&#xe921;" glyph-name="deskpro" data-tags="deskpro" horiz-adv-x="960" d="M411.8-64l62.2 76.8c24.6 0.4 51.2 2.8 73 13.2 77.8 37.2 76.8 123.8 76.6 127.6-0.2 10-1.6 8.8-57.8 74.8h158.2c-0.4-100.2-14.6-137-20.4-151.4-18.8-47.4-87.8-125.6-190.4-138.8-17.4-2.2-65.6-2.4-101.4-2.2zM812.6 271.4c77.2 0 117 27.2 147.4 61.8l-351 0.6-34.8-62.6 238.4 0.2zM725.4 719.2v-336.6h-147l-65.4-111h-13c-104.6 0-116.2 113-116.6 117.8-2.4 26.4-42.6 23.2-40.2-3.6 2.8-31.6 17.6-80 52.8-114.2h-182c-51 0-221.6 53.6-214 228v426.6c0 32 19.4 33.2 30 33.6h164c0.4 0 0.6-0.2 1-0.2 8.6 0.8 100.2 4.2 100.2-87.4 0-26.6 40.4-26.8 40.4 0 0 36.4-11 65.6-31.6 87.4h168.4c217.4 0.8 253-158.8 253-240.4zM460.4 607.2l128-58.6c26.6 91-84.4 143.4-128 58.6z" />
<glyph unicode="&#xe922;" glyph-name="dev" data-tags="dev" horiz-adv-x="896" d="M240.24 543.42c-7.76 5.8-15.54 8.7-23.3 8.7h-34.88v-208.94h34.9c7.76 0 15.54 2.9 23.3 8.7s11.64 14.5 11.64 26.12v139.3c-0.020 11.6-3.92 20.32-11.66 26.12zM808.2 896h-720.4c-48.4 0-87.68-39.18-87.8-87.6v-720.8c0.12-48.42 39.4-87.6 87.8-87.6h720.4c48.42 0 87.68 39.18 87.8 87.6v720.8c-0.12 48.42-39.4 87.6-87.8 87.6zM308.4 377.62c0-37.62-23.22-94.62-96.72-94.5h-92.8v330.92h94.76c70.88 0 94.72-56.92 94.74-94.56l0.020-141.86zM509.76 554.94h-106.56v-76.84h65.14v-59.14h-65.14v-76.82h106.58v-59.14h-124.36c-22.32-0.58-40.88 17.060-41.44 39.38v250.22c-0.54 22.3 17.12 40.82 39.42 41.38h126.38l-0.020-59.040zM717.040 324.36c-26.4-61.5-73.7-49.26-94.88 0l-77.060 289.6h65.14l59.42-227.44 59.14 227.44h65.16l-76.92-289.6z" />
<glyph unicode="&#xe923;" glyph-name="deviantart" data-tags="deviantart" horiz-adv-x="640" d="M640 773.6l-196.4-358.2 14.8-19h181.6v-255.4h-321.8l-27-18.4-87.4-168c-0.6 0-17.2-17.2-18.4-18.4h-185.4v186.4l186.4 358.8-14.8 18.4h-171.6v255.2h312l27 18.4 87.4 168c0.6 0 17.2 17.2 18.4 18.4h195.2v-186.2z" />
<glyph unicode="&#xe924;" glyph-name="digg" data-tags="digg" d="M163.4 615.4h-163.4v-348.8h265.4v501.4h-102v-152.6zM163.4 348.6h-61.6v184.6h61.6v-184.6zM757.8 615.4v-348.8h163.6v-57h-163.6v-81.6h266.2v487.4h-266.2zM921.4 348.6h-61.6v184.6h61.6v-184.6zM450.2 266.6h164.2v-57h-164.2v-81.6h266.6v487.4h-266.6v-348.8zM552.6 533.2h61.6v-184.6h-61.6v184.6zM306.6 768h102.6v-102h-102.6v102zM306.6 615.4h102.6v-348.8h-102.6v348.8z" />
<glyph unicode="&#xe925;" glyph-name="digital-ocean" data-tags="digital-ocean" d="M512-48v192.2c203.6 0 361.6 201.8 283.4 416-28.6 79.2-92.2 142.8-171.6 171.4-214.2 77.6-416.2-79.8-416.2-283.4h-191.6c0 324.4 313.8 577.4 654 471.2 148.4-46.6 267.2-164.8 313.2-313.2 106.4-340.6-146-654.2-471.2-654.2zM512.6 334.8h-191.2v-191.2h191.2v191.2zM321.4 143.6h-147.4v-147.2h147.4v147.2zM174 266.8h-123.2v-123.2h123.2v123.2z" />
<glyph unicode="&#xe926;" glyph-name="discord" data-tags="discord" horiz-adv-x="896" d="M594.432 473.6c0-31.232-23.040-56.832-52.224-56.832-28.672 0-52.224 25.6-52.224 56.832s23.040 56.832 52.224 56.832c29.184 0 52.224-25.6 52.224-56.832zM355.328 530.432c-29.184 0-52.224-25.6-52.224-56.832s23.552-56.832 52.224-56.832c29.184 0 52.224 25.6 52.224 56.832 0.512 31.232-23.040 56.832-52.224 56.832zM896 854.528v-918.528c-128.988 113.988-87.736 76.256-237.568 215.552l27.136-94.72h-580.608c-57.856 0-104.96 47.104-104.96 105.472v692.224c0 58.368 47.104 105.472 104.96 105.472h686.080c57.856 0 104.96-47.104 104.96-105.472zM750.080 369.152c0 164.864-73.728 298.496-73.728 298.496-73.728 55.296-143.872 53.76-143.872 53.76l-7.168-8.192c87.040-26.624 127.488-65.024 127.488-65.024-121.622 66.658-264.488 66.67-382.464 14.848-18.944-8.704-30.208-14.848-30.208-14.848s42.496 40.448 134.656 67.072l-5.12 6.144s-70.144 1.536-143.872-53.76c0 0-73.728-133.632-73.728-298.496 0 0 43.008-74.24 156.16-77.824 0 0 18.944 23.040 34.304 42.496-65.024 19.456-89.6 60.416-89.6 60.416 7.532-5.272 19.952-12.106 20.992-12.8 86.42-48.396 209.176-64.252 319.488-17.92 17.92 6.656 37.888 16.384 58.88 30.208 0 0-25.6-41.984-92.672-60.928 15.36-19.456 33.792-41.472 33.792-41.472 113.152 3.584 156.672 77.824 156.672 77.824z" />
<glyph unicode="&#xe927;" glyph-name="yahoo" data-tags="yahoo" horiz-adv-x="896" d="M504 376l8-440c-25.4 4.4-47 7.8-64.6 7.8-16.8 0-38.4-3.4-64.6-7.8l8 440c-110 189.6-220.8 393.6-348 584 23.8-6.2 46-7.8 66.4-7.8 18 0 40.8 1.6 68.2 7.8 81.8-144.4 164.2-277.4 270-451 74.6 123.2 182.2 288.2 269.8 451 22.2-5.8 44-7.8 65.8-7.8 23 0 46.4 2 70 7.8-68.8-95.8-263.2-433.8-349-584z" />
<glyph unicode="&#xe928;" glyph-name="yandex-international" data-tags="yandex-international" horiz-adv-x="640" d="M259-64v332.2l-222 595.8h111.6l163.6-459.4 188.2 555.4h102.6l-241.4-695.6v-328.4h-102.6z" />
<glyph unicode="&#xe929;" glyph-name="yandex" data-tags="yandex" horiz-adv-x="512" d="M306.2 328.4l-174.8-392.4h-127.4l192 419.6c-90.2 45.8-150.4 128.8-150.4 282.2-0.2 214.8 136 322.2 297.8 322.2h164.6v-1024h-110.2v392.4h-91.6zM397.8 867h-58.8c-88.8 0-174.8-58.8-174.8-229.2 0-164.6 78.8-217.6 174.8-217.6h58.8v446.8z" />
<glyph unicode="&#xe92a;" glyph-name="pinterest-p" data-tags="pinterest-p" horiz-adv-x="768" d="M408 947c-205.2 0-408-136.8-408-358.2 0-140.8 79.2-220.8 127.2-220.8 19.8 0 31.2 55.2 31.2 70.8 0 18.6-47.4 58.2-47.4 135.6 0 160.8 122.4 274.8 280.8 274.8 136.2 0 237-77.4 237-219.6 0-106.2-42.6-305.4-180.6-305.4-49.8 0-92.4 36-92.4 87.6 0 75.6 52.8 148.8 52.8 226.8 0 132.4-187.8 108.4-187.8-51.6 0-33.6 4.2-70.8 19.2-101.4-27.6-118.8-84-295.8-84-418.2 0-37.8 5.4-75 9-112.8 6.8-7.6 3.4-6.8 13.8-3 100.8 138 97.2 165 142.8 345.6 24.6-46.8 88.2-72 138.6-72 212.4 0 307.8 207 307.8 393.6 0 198.6-171.6 328.2-360 328.2z" />
<glyph unicode="&#xe92b;" glyph-name="pinterest-square" data-tags="pinterest-square" horiz-adv-x="896" d="M896 800v-704c0-53-43-96-96-96h-491.2c19.6 32.8 44.8 80 54.8 118.6 6 23 30.6 116.8 30.6 116.8 16-30.6 62.8-56.4 112.6-56.4 148.2 0 254.8 136.2 254.8 305.4 0 162.2-132.4 283.6-302.8 283.6-212 0-324.4-142.2-324.4-297.2 0-72 38.4-161.6 99.6-190.2 9.4-4.4 14.2-2.4 16.4 6.6 1.6 6.8 10 40.2 13.6 55.6 1.2 5 0.6 9.2-3.4 14-20.2 24.6-36.6 69.8-36.6 112 0 108.4 82 213.2 221.8 213.2 120.6 0 205.2-82.2 205.2-199.8 0-132.8-67-224.8-154.4-224.8-48.2 0-84.2 39.8-72.8 88.8 13.8 58.4 40.6 121.4 40.6 163.6 0 106-151 91.4-151-50 0-43.4 14.6-73 14.6-73-62.8-265.6-72.2-269-59.2-385.2l4.4-1.6h-177.2c-53 0-96 43-96 96v704c0 53 43 96 96 96h704c53 0 96-43 96-96z" />
<glyph unicode="&#xe92c;" glyph-name="pinterest" data-tags="pinterest" horiz-adv-x="992" d="M992 448c0-274-222-496-496-496-51.2 0-100.4 7.8-146.8 22.2 20.2 33 50.4 87 61.6 130 6 23.2 30.8 118 30.8 118 16.2-30.8 63.4-57 113.6-57 149.6 0 257.4 137.6 257.4 308.6 0 163.8-133.8 286.4-305.8 286.4-214 0-327.8-143.6-327.8-300.2 0-72.8 38.8-163.4 100.6-192.2 9.4-4.4 14.4-2.4 16.6 6.6 1.6 6.8 10 40.6 13.8 56.2 1.2 5 0.6 9.4-3.4 14.2-20.2 25-36.6 70.6-36.6 113.2 0 109.4 82.8 215.2 224 215.2 121.8 0 207.2-83 207.2-201.8 0-134.2-67.8-227.2-156-227.2-48.6 0-85.2 40.2-73.4 89.6 14 59 41 122.6 41 165.2 0 38-20.4 69.8-62.8 69.8-49.8 0-89.8-51.4-89.8-120.4 0-44 14.8-73.6 14.8-73.6s-49-207.6-58-246.4c-10-42.8-6-103.2-1.8-142.4-184.4 72.2-315.2 251.8-315.2 462 0 274 222 496 496 496s496-222 496-496z" />
<glyph unicode="&#xe92d;" glyph-name="linkedin-in" data-tags="linkedin-in" horiz-adv-x="896" d="M200.6 64h-185.8v598.2h185.8v-598.2zM107.6 743.8c-59.4 0-107.6 49.2-107.6 108.6s48.2 107.6 107.6 107.6 107.6-48.2 107.6-107.6-48.2-108.6-107.6-108.6zM896 64h-185.4v291.2c0 69.4-1.4 158.4-96.6 158.4-96.6 0-111.4-75.4-111.4-153.4v-296.2h-185.6v598.2h178.2v-81.6h2.6c24.8 47 85.4 96.6 175.8 96.6 188 0 222.6-123.8 222.6-284.6v-328.6h-0.2z" />
<glyph unicode="&#xe92e;" glyph-name="linkedin" data-tags="linkedin" horiz-adv-x="896" d="M832 896h-768.2c-35.2 0-63.8-29-63.8-64.6v-766.8c0-35.6 28.6-64.6 63.8-64.6h768.2c35.2 0 64 29 64 64.6v766.8c0 35.6-28.8 64.6-64 64.6zM270.8 128h-132.8v427.6h133v-427.6zM204.4 614c-42.6 0-77 34.6-77 77s34.4 77 77 77c42.4 0 77-34.6 77-77 0-42.6-34.4-77-77-77zM768.6 128h-132.8v208c0 49.6-1 113.4-69 113.4-69.2 0-79.8-54-79.8-109.8v-211.6h-132.8v427.6h127.4v-58.4h1.8c17.8 33.6 61.2 69 125.8 69 134.4 0 159.4-88.6 159.4-203.8v-234.4z" />
<glyph unicode="&#xe92f;" glyph-name="git-square" data-tags="git-square" horiz-adv-x="896" d="M280.2 263c24.2 0 59-4.2 59-35.8 0-31-27.8-37.6-54-37.6-24.6 0-61.8 4-61.8 36s31.4 37.4 56.8 37.4zM230.8 496.2c0-29.6 13.2-48.2 44.6-48.2 31 0 42.4 20 42.4 49 0.2 68.8-87 69.6-87-0.8zM896 800v-704c0-53-43-96-96-96h-704c-53 0-96 43-96 96v704c0 53 43 96 96 96h704c53 0 96-43 96-96zM414 612.6c-24.6-9.6-51-16.8-77.8-16.8-77 44.2-181.4-1.8-181.4-99 0-36 23.2-85.8 59.2-97.8v-1.4c-26.8-11.8-34.2-72.2 1.4-94v-1.4c-39-12.8-64.6-37.6-64.6-80.4 0-73.6 69.6-94 130.8-94 74.2 0 129.6 26.8 129.6 108.6 0 100.8-144.2 63.6-144.2 118.2 0 19.2 10.4 26.8 28.2 30.4 59.2 11 96.4 57.2 96.4 117.4 0 10.4-2.2 20.4-5.8 30 9.6 2.2 19 4.6 28.2 7.8v72.4zM527.6 609h-79.2c2.6-21.2 2.2-285.2 0-311h79.2c-2.2 25.6-2.4 290.2 0 311zM536.6 715.6c0 26.8-20 52.4-48.2 52.4-28.6 0-49.2-25-49.2-52.4 0-27.2 21-51.8 49.2-51.8 27.4 0 48.2 25 48.2 51.8zM745.2 609h-72.8c0 19.6-0.8 39.2 2.2 59h-81c2.6-14.6 2.2-27.2 2.2-59h-34.2v-67.8c23.8 3.8 24.2 1.4 34.2 1.4v-1.4h-0.8v-125.4c0-62.2 9-122.4 85.4-122.4 21.4 0 46 3.6 65 14v70c-11.4-7.8-27.8-11.8-41.8-11.8-26.4 0-31 25.8-31 46.8v130.4c45.4 0 72.8-1.4 72.8-1.4v67.6z" />
<glyph unicode="&#xe930;" glyph-name="git" data-tags="git" horiz-adv-x="896" d="M37.6 516.6c0-50.6 32.4-120 83-137v-2c-37.6-16.6-48-101.2 2-131.6v-2c-54.6-18-90.6-52.6-90.6-112.4 0-103 97.6-131.6 183-131.6 104 0 181.4 37.4 181.4 152 0 141-202 89-202 165.6 0 27 14.4 37.4 39.4 42.6 83 15.4 135 80 135 164.4 0 14.6-3 28.4-8 42 13.4 3 26.4 6.6 39.4 11v101c-34.4-13.6-71.4-23.6-109-23.6-107.6 62-253.6-2.6-253.6-138.4zM213 189c34 0 82.4-6 82.4-50 0-43.6-39-52.6-75.4-52.6-34.6 0-86.6 5.4-86.6 50.4 0.2 44.6 44.2 52.2 79.6 52.2zM206.6 448c-44 0-62.6 26-62.6 67.6 0 98.6 122 97.6 122 1 0-40.6-16-68.6-59.4-68.6zM864 349v-98c-26.6-14.6-61-19.6-91-19.6-107 0-119.6 84.4-119.6 171.4v175.4h1v2c-14 0-14.6 3.2-48-2v95h48c0 44.6 0.6 62-3 82.4h113.4c-4-27.6-3-55-3-82.4h102v-95s-38.6 2-102 2v-182.2c0-29.6 6.6-65.6 43.6-65.6 19.6 0 42.6 5.6 58.6 16.6zM572 822.6c0-37.4-29-72.4-67.6-72.4-39.6 0-69 34.4-69 72.4 0 38.6 29 73.4 69 73.4 39.6 0 67.6-36 67.6-73.4zM559.6 673.6c-3.6-29.2-3.2-399.6 0-435.6h-111c3.2 36.2 3.6 406 0 435.6h111z" />
<glyph unicode="&#xe931;" glyph-name="github-alt" data-tags="github-alt" horiz-adv-x="960" d="M372.2 302.6c0-41.8-21.8-110.2-73.4-110.2s-73.4 68.4-73.4 110.2 21.8 110.2 73.4 110.2 73.4-68.4 73.4-110.2zM960 403.6c0-63.8-6.4-131.4-35-190-75.8-153.2-284.2-149.6-433.4-149.6-151.6 0-372.4-5.4-451.2 149.6-29.2 58-40.4 126.2-40.4 190 0 83.8 27.8 163 83 227.2-10.4 31.6-15.4 64.8-15.4 97.6 0 43 9.8 64.6 29.2 103.6 90.6 0 148.6-18 217.6-72 58 13.8 117.6 20 177.4 20 54 0 108.4-5.8 160.8-18.4 68 53.4 126 70.4 215.6 70.4 19.6-39 29.2-60.6 29.2-103.6 0-32.8-5.2-65.4-15.4-96.4 55-64.8 78-144.6 78-228.4zM831.4 302.6c0 87.8-53.4 165.2-147 165.2-37.8 0-74-6.8-112-12-29.8-4.6-59.6-6.4-90.2-6.4-30.4 0-60.2 1.8-90.2 6.4-37.4 5.2-74 12-112 12-93.6 0-147-77.4-147-165.2 0-175.6 160.8-202.6 300.8-202.6h96.4c140.6 0 301.2 26.8 301.2 202.6zM666.2 412.8c-51.6 0-73.4-68.4-73.4-110.2s21.8-110.2 73.4-110.2 73.4 68.4 73.4 110.2-21.8 110.2-73.4 110.2z" />
<glyph unicode="&#xe932;" glyph-name="github-square" data-tags="github-square" horiz-adv-x="896" d="M800 896h-704c-53 0-96-43-96-96v-704c0-53 43-96 96-96h704c53 0 96 43 96 96v704c0 53-43 96-96 96zM554.6 128.6c-16.8-3-23 7.4-23 16 0 10.8 0.4 66 0.4 110.6 0 31.2-10.4 51-22.6 61.4 74 8.2 152 18.4 152 146.2 0 36.4-13 54.6-34.2 78 3.4 8.6 14.8 44-3.4 90-27.8 8.6-91.4-35.8-91.4-35.8-26.4 7.4-55 11.2-83.2 11.2s-56.8-3.8-83.2-11.2c0 0-63.6 44.4-91.4 35.8-18.2-45.8-7-81.2-3.4-90-21.2-23.4-31.2-41.6-31.2-78 0-127.2 74.6-138 148.6-146.2-9.6-8.6-18.2-23.4-21.2-44.6-19-8.6-67.6-23.4-96.6 27.8-18.2 31.6-51 34.2-51 34.2-32.4 0.4-2.2-20.4-2.2-20.4 21.6-10 36.8-48.4 36.8-48.4 19.4-59.4 112.2-39.4 112.2-39.4 0-27.8 0.4-73 0.4-81.2 0-8.6-6-19-23-16-132 44.2-224.4 169.8-224.4 316.6 0 183.6 140.4 323 324 323s332.4-139.4 332.4-323c0.2-146.8-89.4-272.6-221.4-316.6zM358.4 250.8c-3.8-0.8-7.4 0.8-7.8 3.4-0.4 3 2.2 5.6 6 6.4 3.8 0.4 7.4-1.2 7.8-3.8 0.6-2.6-2-5.2-6-6zM339.4 252.6c0-2.6-3-4.8-7-4.8-4.4-0.4-7.4 1.8-7.4 4.8 0 2.6 3 4.8 7 4.8 3.8 0.4 7.4-1.8 7.4-4.8zM312 254.8c-0.8-2.6-4.8-3.8-8.2-2.6-3.8 0.8-6.4 3.8-5.6 6.4s4.8 3.8 8.2 3c4-1.2 6.6-4.2 5.6-6.8zM287.4 265.6c-1.8-2.2-5.6-1.8-8.6 1.2-3 2.6-3.8 6.4-1.8 8.2 1.8 2.2 5.6 1.8 8.6-1.2 2.6-2.6 3.6-6.6 1.8-8.2zM269.2 283.8c-1.8-1.2-5.2 0-7.4 3s-2.2 6.4 0 7.8c2.2 1.8 5.6 0.4 7.4-2.6 2.2-3 2.2-6.6 0-8.2zM256.2 303.2c-1.8-1.8-4.8-0.8-7 1.2-2.2 2.6-2.6 5.6-0.8 7 1.8 1.8 4.8 0.8 7-1.2 2.2-2.6 2.6-5.6 0.8-7zM242.8 318c-0.8-1.8-3.4-2.2-5.6-0.8-2.6 1.2-3.8 3.4-3 5.2 0.8 1.2 3 1.8 5.6 0.8 2.6-1.4 3.8-3.6 3-5.2z" />
<glyph unicode="&#xe933;" glyph-name="github" data-tags="github" horiz-adv-x="992" d="M331.8 165.2c0-4-4.6-7.2-10.4-7.2-6.6-0.6-11.2 2.6-11.2 7.2 0 4 4.6 7.2 10.4 7.2 6 0.6 11.2-2.6 11.2-7.2zM269.6 174.2c-1.4-4 2.6-8.6 8.6-9.8 5.2-2 11.2 0 12.4 4s-2.6 8.6-8.6 10.4c-5.2 1.4-11-0.6-12.4-4.6zM358 177.6c-5.8-1.4-9.8-5.2-9.2-9.8 0.6-4 5.8-6.6 11.8-5.2 5.8 1.4 9.8 5.2 9.2 9.2-0.6 3.8-6 6.4-11.8 5.8zM489.6 944c-277.4 0-489.6-210.6-489.6-488 0-221.8 139.6-411.6 339-478.4 25.6-4.6 34.6 11.2 34.6 24.2 0 12.4-0.6 80.8-0.6 122.8 0 0-140-30-169.4 59.6 0 0-22.8 58.2-55.6 73.2 0 0-45.8 31.4 3.2 30.8 0 0 49.8-4 77.2-51.6 43.8-77.2 117.2-55 145.8-41.8 4.6 32 17.6 54.2 32 67.4-111.8 12.4-224.6 28.6-224.6 221 0 55 15.2 82.6 47.2 117.8-5.2 13-22.2 66.6 5.2 135.8 41.8 13 138-54 138-54 40 11.2 83 17 125.6 17s85.6-5.8 125.6-17c0 0 96.2 67.2 138 54 27.4-69.4 10.4-122.8 5.2-135.8 32-35.4 51.6-63 51.6-117.8 0-193-117.8-208.4-229.6-221 18.4-15.8 34-45.8 34-92.8 0-67.4-0.6-150.8-0.6-167.2 0-13 9.2-28.8 34.6-24.2 200 66.4 335.6 256.2 335.6 478 0 277.4-225 488-502.4 488zM194.4 254.2c-2.6-2-2-6.6 1.4-10.4 3.2-3.2 7.8-4.6 10.4-2 2.6 2 2 6.6-1.4 10.4-3.2 3.2-7.8 4.6-10.4 2zM172.8 270.4c-1.4-2.6 0.6-5.8 4.6-7.8 3.2-2 7.2-1.4 8.6 1.4 1.4 2.6-0.6 5.8-4.6 7.8-4 1.2-7.2 0.6-8.6-1.4zM237.6 199.2c-3.2-2.6-2-8.6 2.6-12.4 4.6-4.6 10.4-5.2 13-2 2.6 2.6 1.4 8.6-2.6 12.4-4.4 4.6-10.4 5.2-13 2zM214.8 228.6c-3.2-2-3.2-7.2 0-11.8s8.6-6.6 11.2-4.6c3.2 2.6 3.2 7.8 0 12.4-2.8 4.6-8 6.6-11.2 4z" />
<glyph unicode="&#xe934;" glyph-name="flickr" data-tags="flickr" horiz-adv-x="896" d="M800 896h-704c-53 0-96-43-96-96v-704c0-53 43-96 96-96h704c53 0 96 43 96 96v704c0 53-43 96-96 96zM289 322c-70.2 0-127 56.8-127 127s56.8 127 127 127 127-56.8 127-127-56.8-127-127-127zM607 322c-70.2 0-127 56.8-127 127s56.8 127 127 127 127-56.8 127-127-56.8-127-127-127z" />
<glyph unicode="&#xe935;" glyph-name="dribbble-square" data-tags="dribbble-square" horiz-adv-x="896" d="M180.4 503.6c17.8 84.8 74.8 155.4 151.4 191.4 7.2-9.8 56-77.6 101.4-158-128-34-240.6-33.6-252.8-33.4zM629.2 652c-67.2 59.6-158.6 82.2-245.2 61.2 7.6-10.2 57.2-77.8 102-160 97.2 36.6 138.2 91.8 143.2 98.8zM280.2 232c81-63.2 186.6-73.4 274.6-36-4 24-20 107.6-58.4 207.2-110.2-37.6-187.6-112.8-216.2-171.2zM477.8 448.4c-6.8 15.6-14.4 31-22.2 46.4-136.4-40.8-268.8-39.2-280.8-38.8 0-2.8-0.2-5.6-0.2-8.4 0-70.2 26.6-134.2 70.2-182.8 44.4 75.8 134.2 155.8 233 183.6zM547.6 415.8c35.8-98.2 50.2-178.2 53-194.8 61.4 41.4 105 107.2 117.2 183.2-9.2 3-84.6 25.4-170.2 11.6zM507 512.6c9.6-19.6 16.6-35.6 24-53.6 91 11.4 181.4-6.8 190.4-8.8-0.6 64.6-23.6 123.8-61.8 170.2-5.8-7.8-51.6-66.4-152.6-107.8zM896 800v-704c0-53-43-96-96-96h-704c-53 0-96 43-96 96v704c0 53 43 96 96 96h704c53 0 96-43 96-96zM768 448c0 176.4-143.6 320-320 320s-320-143.6-320-320 143.6-320 320-320 320 143.6 320 320z" />
<glyph unicode="&#xe936;" glyph-name="dribbble" data-tags="dribbble" d="M512 944c-273.496 0-496-222.504-496-496s222.504-496 496-496 496 222.504 496 496-222.504 496-496 496zM839.94 715.268c59.006-72.092 94.738-163.914 95.67-263.91-13.968 2.954-154.036 31.364-295.004 13.636-11.504 28.082-22.362 52.786-37.234 83.228 156.642 63.954 227.636 154.964 236.568 167.046zM792.842 764.26c-7.62-10.854-71.394-96.572-222.042-153.038-69.424 127.552-146.37 232.336-158.080 248.016 134.352 32.386 275.932-2.54 380.122-94.978zM331.882 830.76c11.17-15.318 86.876-120.232 157.074-245.018-198.174-52.626-372.72-51.868-391.668-51.618 27.472 131.466 116.068 240.73 234.594 296.636zM88.34 447.354c0 4.332 0.086 8.644 0.216 12.946 18.536-0.38 223.84-3.026 435.412 60.292 12.128-23.736 23.714-47.83 34.348-71.898-153.198-43.15-292.388-167.054-361.062-284.612-67.666 75.108-108.914 174.458-108.914 283.272zM251.954 113.128c44.254 90.466 164.356 207.244 335.158 265.512 59.48-154.566 84.078-284.106 90.378-321.276-136.224-58.026-300.030-42.106-425.536 55.764zM748.714 96.15c-4.342 25.772-26.892 149.794-82.304 302.066 132.76 21.252 249.4-13.536 263.894-18.11-18.884-117.882-86.546-219.688-181.59-283.956z" />
<glyph unicode="&#xe937;" glyph-name="behance-square" data-tags="behance-square" horiz-adv-x="896" d="M373 374c0-38.6-28-50.8-62.4-50.8h-90.2v105.8h92c37.2-0.2 60.6-15.6 60.6-55zM357.6 538.6c0 35.4-27.4 43.8-57.8 43.8h-79.2v-89.6h85.4c30.2 0 51.6 13.2 51.6 45.8zM622.2 492.2c-36.6 0-61-22.8-63.4-59.4h124.4c-3.4 37-22.6 59.4-61 59.4zM896 800v-704c0-53-43-96-96-96h-704c-53 0-96 43-96 96v704c0 53 43 96 96 96h704c53 0 96-43 96-96zM543.4 590h155.6v37.8h-155.6v-37.8zM457.4 369.4c0 48.2-22.8 89.8-70 103.2 34.4 16.4 52.4 35.4 52.4 74 0 76.4-57 95-122.8 95h-181v-384h186.2c69.8 0.4 135.2 33.8 135.2 111.8zM760 399c0 82.2-48.2 150.8-135.2 150.8-84.8 0-142.2-63.6-142.2-147.2 0-86.6 54.6-146 142.2-146 66.4 0 109.4 29.8 130.2 93.6h-67.4c-7.4-23.8-37.2-36.2-60.4-36.2-44.8 0-68.2 26.2-68.2 70.6h200.4c0.2 4.6 0.6 9.6 0.6 14.4z" />
<glyph unicode="&#xe938;" glyph-name="behance" data-tags="behance" horiz-adv-x="1152" d="M464 485.6c63.6 30.4 96.8 76.4 96.8 148 0 141.2-105.2 175.6-226.6 175.6h-334.2v-708.8h343.6c128.8 0 249.8 61.8 249.8 205.8 0 89-42.2 154.8-129.4 179.4zM155.8 688.2h146.2c56.2 0 106.8-15.8 106.8-81 0-60.2-39.4-84.4-95-84.4h-158v165.4zM322.4 220.8h-166.6v195.2h169.8c68.6 0 112-28.6 112-101.2 0-71.6-51.8-94-115.2-94zM1039.4 702.2h-287.4v69.8h287.4v-69.8zM1152 349.6c0 151.8-88.8 278.4-249.8 278.4-156.4 0-262.6-117.6-262.6-271.6 0-159.8 100.6-269.4 262.6-269.4 122.6 0 202 55.2 240.2 172.6h-124.4c-13.4-43.8-68.6-67-111.4-67-82.6 0-126 48.4-126 130.6h370.2c0.6 8.4 1.2 17.4 1.2 26.4zM780.8 412c4.6 67.4 49.4 109.6 117 109.6 70.8 0 106.4-41.6 112.4-109.6h-229.4z" />
<glyph unicode="&#xe939;" glyph-name="twitter-square" data-tags="twitter-square" horiz-adv-x="896" d="M800 896h-704c-53 0-96-43-96-96v-704c0-53 43-96 96-96h704c53 0 96 43 96 96v704c0 53-43 96-96 96zM702.2 578.4c0.4-5.6 0.4-11.4 0.4-17 0-173.4-132-373.2-373.2-373.2-74.4 0-143.4 21.6-201.4 58.8 10.6-1.2 20.8-1.6 31.6-1.6 61.4 0 117.8 20.8 162.8 56-57.6 1.2-106 39-122.6 91 20.2-3 38.4-3 59.2 2.4-60 12.2-105 65-105 128.8v1.6c17.4-9.8 37.8-15.8 59.2-16.6-35.411 23.8-58.4 63.708-58.4 108.986 0 0.075 0 0.151 0 0.226v-0.012c0 24.4 6.4 46.8 17.8 66.2 64.6-79.6 161.6-131.6 270.4-137.2-18.6 89 48 161.2 128 161.2 37.8 0 71.8-15.8 95.8-41.4 29.6 5.6 58 16.6 83.2 31.6-9.8-30.4-30.4-56-57.6-72.2 26.4 2.8 52 10.2 75.6 20.4-17.8-26.2-40.2-49.4-65.8-68z" />
<glyph unicode="&#xe93a;" glyph-name="twitter" data-tags="twitter" d="M918.74 656.568c0.65-9.096 0.65-18.194 0.65-27.29 0-277.44-211.166-597.116-597.116-597.116-118.904 0-229.36 34.438-322.274 94.212 16.894-1.948 33.136-2.598 50.68-2.598 98.11 0 188.426 33.136 260.548 89.664-92.264 1.95-169.584 62.376-196.224 145.544 12.996-1.948 25.99-3.248 39.636-3.248 18.842 0 37.686 2.6 55.228 7.146-96.162 19.494-168.286 103.96-168.286 205.97v2.598c27.938-15.594 60.428-25.34 94.862-26.638-56.528 37.686-93.562 102.010-93.562 174.782 0 38.984 10.394 74.72 28.588 105.908 103.31-127.35 258.6-210.516 432.73-219.614-3.248 15.594-5.198 31.836-5.198 48.080 0 115.656 93.564 209.868 209.868 209.868 60.426 0 115.004-25.34 153.34-66.274 47.43 9.096 92.912 26.64 133.198 50.68-15.596-48.732-48.732-89.666-92.264-115.654 42.234 4.546 83.168 16.244 120.852 32.486-28.584-41.582-64.322-78.616-105.256-108.506z" />
<glyph unicode="&#xe93b;" glyph-name="vk" data-tags="vk" horiz-adv-x="1152" d="M1090 724.6c7.4 25 0 43.4-35.6 43.4h-117.8c-30 0-43.8-15.8-51.2-33.4 0 0-60-146.2-144.8-241-27.4-27.4-40-36.2-55-36.2-7.4 0-18.8 8.8-18.8 33.8v233.4c0 30-8.4 43.4-33.2 43.4h-185.2c-18.8 0-30-14-30-27 0-28.4 42.4-35 46.8-115v-173.6c0-38-6.8-45-21.8-45-40 0-137.2 146.8-194.8 314.8-11.6 32.6-23 45.8-53.2 45.8h-117.8c-33.6 0-40.4-15.8-40.4-33.4 0-31.2 40-186.2 186.2-391 97.4-139.8 234.6-215.6 359.4-215.6 75 0 84.2 16.8 84.2 45.8 0 133.6-6.8 146.2 30.8 146.2 17.4 0 47.4-8.8 117.4-76.2 80-80 93.2-115.8 138-115.8h117.8c33.6 0 50.6 16.8 40.8 50-22.4 69.8-173.8 213.4-180.6 223-17.4 22.4-12.4 32.4 0 52.4 0.2 0.2 144 202.6 158.8 271.2z" />
<glyph unicode="&#xe93c;" glyph-name="instagram" data-tags="instagram" horiz-adv-x="896" d="M448.2 678c-127.2 0-229.8-102.6-229.8-229.8s102.6-229.8 229.8-229.8 229.8 102.6 229.8 229.8-102.6 229.8-229.8 229.8zM448.2 298.8c-82.2 0-149.4 67-149.4 149.4s67 149.4 149.4 149.4 149.4-67 149.4-149.4-67.2-149.4-149.4-149.4zM741 687.4c0-29.8-24-53.6-53.6-53.6-29.8 0-53.6 24-53.6 53.6s24 53.6 53.6 53.6 53.6-24 53.6-53.6zM893.2 633c-3.4 71.8-19.8 135.4-72.4 187.8-52.4 52.4-116 68.8-187.8 72.4-74 4.2-295.8 4.2-369.8 0-71.6-3.4-135.2-19.8-187.8-72.2s-68.8-116-72.4-187.8c-4.2-74-4.2-295.8 0-369.8 3.4-71.8 19.8-135.4 72.4-187.8s116-68.8 187.8-72.4c74-4.2 295.8-4.2 369.8 0 71.8 3.4 135.4 19.8 187.8 72.4 52.4 52.4 68.8 116 72.4 187.8 4.2 74 4.2 295.6 0 369.6zM797.6 184c-15.6-39.2-45.8-69.4-85.2-85.2-59-23.4-199-18-264.2-18s-205.4-5.2-264.2 18c-39.2 15.6-69.4 45.8-85.2 85.2-23.4 59-18 199-18 264.2s-5.2 205.4 18 264.2c15.6 39.2 45.8 69.4 85.2 85.2 59 23.4 199 18 264.2 18s205.4 5.2 264.2-18c39.2-15.6 69.4-45.8 85.2-85.2 23.4-59 18-199 18-264.2s5.4-205.4-18-264.2z" />
<glyph unicode="&#xe93d;" glyph-name="facebook-f" data-tags="facebook-f" horiz-adv-x="528" d="M153.4-64v458h-153.4v182h153.4v143.4c0 155.8 95.2 240.6 234.2 240.6 66.6 0 123.8-5 140.4-7.2v-162.8h-96.4c-75.6 0-90.2-36-90.2-88.6v-125.4h170.6l-23.4-182h-147.2v-458z" />
<glyph unicode="&#xe93e;" glyph-name="facebook-messenger" data-tags="facebook-messenger" horiz-adv-x="896" d="M448 896c-416.2 0-603-492-278.8-737.2v-158.8l151.4 84c284.4-79.6 570.8 119.8 570.8 397.4 0.2 229-198.4 414.6-443.4 414.6zM494.8 339.8l-114.8 119.2-220.8-122.2 242.2 257 114.8-119.2 220.8 122.2-242.2-257z" />
<glyph unicode="&#xe93f;" glyph-name="facebook-square" data-tags="facebook-square" horiz-adv-x="896" d="M896 800v-704c0-53-43-96-96-96h-170.6v354.4h121.2l17.4 135.2h-138.6v86.4c0 39.2 10.8 65.8 67 65.8h71.6v120.8c-12.4 1.6-54.8 5.4-104.4 5.4-103.2 0-174-63-174-178.8v-99.8h-121.6v-135.2h121.8v-354.2h-393.8c-53 0-96 43-96 96v704c0 53 43 96 96 96h704c53 0 96-43 96-96z" />
<glyph unicode="&#xe940;" glyph-name="facebook" data-tags="facebook" horiz-adv-x="896" d="M896 846.6v-797c0-27.4-22.2-49.4-49.4-49.4h-228.4v346.8h116.4l17.4 135.2h-134v86.4c0 39.2 10.8 65.8 67 65.8h71.6v121c-12.4 1.6-54.8 5.4-104.4 5.4-103.2 0-174-63-174-178.8v-99.8h-116.8v-135.2h116.8v-347h-428.8c-27.2 0-49.4 22.2-49.4 49.4v797.2c0 27.2 22.2 49.4 49.4 49.4h797c27.4 0 49.6-22.2 49.6-49.4z" />
<glyph unicode="&#xe941;" glyph-name="chevron-down" data-tags="chevron-down" horiz-adv-x="896" d="M414.058 197.048l-388.686 388.688c-18.746 18.746-18.746 49.138 0 67.882l45.334 45.334c18.714 18.714 49.044 18.75 67.802 0.080l309.492-308.042 309.49 308.042c18.758 18.67 49.088 18.634 67.802-0.080l45.334-45.334c18.746-18.746 18.746-49.138 0-67.882l-388.684-388.688c-18.746-18.744-49.138-18.744-67.884 0z" />
<glyph unicode="&#xe942;" glyph-name="chevron-left" data-tags="chevron-left" horiz-adv-x="640" d="M69.040 481.94l388.7 388.68c18.74 18.74 49.14 18.74 67.88 0l45.34-45.34c18.72-18.72 18.74-49.040 0.080-67.8l-308.060-309.48 308.040-309.5c18.68-18.76 18.64-49.080-0.080-67.8l-45.34-45.34c-18.74-18.74-49.14-18.74-67.88 0l-388.68 388.7c-18.74 18.74-18.74 49.14 0 67.88z" />
<glyph unicode="&#xe943;" glyph-name="chevron-right" data-tags="chevron-right" horiz-adv-x="640" d="M570.952 414.058l-388.688-388.686c-18.746-18.746-49.138-18.746-67.882 0l-45.334 45.334c-18.714 18.714-18.75 49.044-0.080 67.802l308.042 309.492-308.042 309.49c-18.67 18.758-18.634 49.088 0.080 67.802l45.334 45.334c18.746 18.746 49.138 18.746 67.882 0l388.686-388.686c18.746-18.744 18.746-49.136 0.002-67.882z" />
<glyph unicode="&#xe944;" glyph-name="chevron-up" data-tags="chevron-up" horiz-adv-x="896" d="M481.942 698.952l388.686-388.686c18.746-18.746 18.746-49.138 0-67.882l-45.334-45.334c-18.714-18.714-49.044-18.75-67.802-0.080l-309.492 308.040-309.49-308.042c-18.758-18.67-49.088-18.634-67.802 0.080l-45.334 45.334c-18.746 18.746-18.746 49.138 0 67.882l388.686 388.686c18.744 18.746 49.136 18.746 67.882 0.002z" />
<glyph unicode="&#xe945;" glyph-name="comment" data-tags="comment" d="M26.56-9.856c15.639 0.059 30.919 1.407 45.795 3.942l-1.635-0.23c19.144 3.141 35.647 7.058 51.707 11.99l-2.747-0.726c17.152 5.12 35.072 11.392 53.632 19.2s37.888 16.192 57.6 26.048q38.4 19.2 69.44 38.4t48.384 30.272c21.799-5.939 48.809-11.296 76.359-14.937l3.321-0.359c24.656-3.342 53.154-5.249 82.098-5.249 0.387 0 0.775 0 1.162 0.001h-0.060c0.066 0 0.144 0 0.222 0 35.094 0 69.541 2.769 103.135 8.101l-3.71-0.485c36.253 5.614 68.186 13.394 99.031 23.567l-4.311-1.231c33.911 11.063 62.695 23.37 90.156 37.85l-3.116-1.498c29.662 15.451 55.147 32.021 78.876 50.719l-1.052-0.799c12.45 9.55 23.442 18.938 33.925 28.857l-0.197-0.185q15.744 14.976 29.696 31.040c8.511 9.834 16.917 20.639 24.753 31.87l0.847 1.282q11.84 17.088 21.824 35.008c12.459 22.397 23.064 48.348 30.47 75.616l0.57 2.464c6.666 24.503 10.496 52.636 10.496 81.664s-3.83 57.161-11.012 83.922l0.516-2.258c-8.003 29.642-18.605 55.504-31.957 79.631l0.917-1.807c-7.613 13.987-14.843 25.594-22.65 36.767l0.826-1.247c-8.683 12.513-17.089 23.318-26.023 33.653l0.423-0.501q-13.888 16-29.696 31.040c-10.287 9.734-21.278 19.123-32.734 27.937l-0.994 0.735c-22.627 17.499-48.093 33.991-74.9 48.303l-2.924 1.425c-24.489 13.152-53.361 25.527-83.361 35.42l-3.935 1.124c-26.474 8.885-58.404 16.662-91.189 21.873l-3.531 0.463c-29.96 4.847-64.497 7.616-99.68 7.616s-69.72-2.769-103.403-8.102l3.723 0.486c-36.167-5.652-67.987-13.429-98.731-23.574l4.331 1.238c-33.984-11.089-62.852-23.46-90.378-38.032l3.082 1.488c-29.615-15.549-55.028-32.048-78.773-50.586l1.141 0.858q-17.856-13.696-33.92-28.672c-10.455-9.76-20.156-19.887-29.27-30.531l-0.426-0.509q-13.76-16-25.6-33.152c-7.286-10.154-14.443-21.775-20.789-33.888l-0.779-1.632c-12.468-22.328-23.072-48.192-30.472-75.377l-0.568-2.447c-6.666-24.408-10.496-52.432-10.496-81.351 0-0.065 0-0.13 0-0.195v0.010c0-0.050 0-0.109 0-0.168 0-28.709 3.736-56.546 10.748-83.051l-0.508 2.258c7.645-29.329 18.001-54.979 31.156-78.872l-0.884 1.752c14.645-26.715 30.855-49.782 49.287-70.856l-0.391 0.456c19.838-22.723 41.355-43.003 64.687-61.050l1.041-0.774c-4.919-14.008-9.888-25.545-15.52-36.69l0.8 1.746c-8.418-16.916-17.42-31.406-27.601-44.959l0.529 0.735c-13.138-17.575-26.756-33.121-41.471-47.552l-0.065-0.064c-17.216-16.745-36.454-31.564-57.272-44.015l-1.416-0.785c-5.105-3.020-9.033-7.567-11.201-13.006l-0.063-0.178c-1.235-2.813-1.954-6.092-1.954-9.539 0-2.605 0.41-5.113 1.17-7.465l-0.048 0.172c1.375-5.969 4.767-10.987 9.405-14.417l0.067-0.047c4.461-3.434 10.126-5.504 16.276-5.504 0.016 0 0.031 0 0.047 0h-0.002zM511.552 851.776c1.137 0.008 2.482 0.013 3.827 0.013 62.261 0 122.18-10.027 178.231-28.553l-4.010 1.148c55.609-17.889 103.912-43.397 146.682-75.823l-1.21 0.879c39.749-30.197 72.542-67.277 97.103-109.717l0.945-1.771c22.656-39.118 36.026-86.062 36.026-136.128s-13.37-97.010-36.733-137.456l0.707 1.328c-25.562-44.088-58.346-81.076-97.138-110.568l-0.91-0.664c-41.579-31.549-89.866-57.129-142.001-74.215l-3.471-0.985c-52.005-17.54-111.896-27.662-174.152-27.662-1.37 0-2.738 0.005-4.105 0.015l0.21-0.001c-0.13 0-0.284 0-0.438 0-28.601 0-56.735 2.001-84.269 5.869l3.171-0.365c-30.141 4.216-56.65 10.008-82.395 17.584l3.995-1.008c-2.382 0.692-5.117 1.090-7.946 1.090-1.373 0-2.724-0.094-4.048-0.275l0.154 0.017c-4.115-0.525-7.78-2.129-10.798-4.515l0.046 0.035q-20.992-14.208-45.248-29.184t-50.24-28.928q-25.984-14.016-52.864-26.048t-53.12-21.568c12.971 13.989 24.997 29.289 35.723 45.525l0.821 1.323c7.915 11.851 16.224 25.94 23.794 40.477l1.23 2.595c5.107 9.679 10.328 21.482 14.802 33.645l0.686 2.131c3.712 10.56 6.4 18.752 8.192 24.768 0.532 2 0.837 4.296 0.837 6.664 0 3.352-0.612 6.561-1.731 9.521l0.061-0.185c-1.883 5.301-5.27 9.68-9.644 12.745l-0.084 0.055c-23.775 16.38-44.524 34.285-63.164 54.189l-0.196 0.211c-17.3 18.454-32.717 39.047-45.715 61.229l-0.877 1.619c-11.559 19.718-21.416 42.508-28.393 66.522l-0.535 2.15c-6.338 21.626-9.984 46.469-9.984 72.164 0 0.055 0 0.11 0 0.164v-0.009c0 0.14 0 0.306 0 0.472 0 49.866 13.375 96.608 36.732 136.834l-0.7-1.306c25.56 44.251 58.466 81.341 97.447 110.82l0.921 0.668c41.642 31.529 90.028 57.037 142.274 73.976l3.454 0.968c52.041 17.378 111.96 27.405 174.221 27.405 1.346 0 2.691-0.005 4.035-0.014l-0.207 0.001zM511.552 420.992c44.38 0.299 80.241 36.345 80.241 80.766 0 44.607-36.161 80.768-80.768 80.768s-80.768-36.161-80.768-80.768c0-22.323 9.056-42.53 23.694-57.149l0.001-0.001c14.141-14.585 33.916-23.637 55.806-23.637 0.631 0 1.26 0.008 1.888 0.022l-0.093-0.002zM511.552 528.768c14.762-0.11 26.687-12.102 26.687-26.879 0-14.845-12.035-26.88-26.88-26.88s-26.88 12.035-26.88 26.88c0 7.423 3.009 14.143 7.873 19.007v0c4.667 4.862 11.22 7.882 18.478 7.882 0.254 0 0.507-0.004 0.759-0.011l-0.037 0.001zM726.656 420.992c0.090 0 0.197-0.001 0.304-0.001 44.607 0 80.768 36.161 80.768 80.768s-36.161 80.768-80.768 80.768c-44.607 0-80.768-36.161-80.768-80.768 0-22.323 9.056-42.531 23.695-57.15l0.001-0.001c14.2-14.578 34.020-23.62 55.952-23.62 0.287 0 0.573 0.002 0.86 0.005h-0.044zM726.656 528.768c0.089 0.001 0.194 0.002 0.299 0.002 7.39 0 14.076-3.011 18.9-7.872l0.002-0.002c4.858-4.844 7.863-11.543 7.863-18.944s-3.005-14.1-7.862-18.943l-0.001-0.001c-4.825-4.863-11.512-7.874-18.901-7.874-0.105 0-0.21 0.001-0.315 0.002h0.016c-14.81 0-26.816 12.006-26.816 26.816s12.006 26.816 26.816 26.816v0 0zM295.872 420.992c0.055 0 0.121 0 0.186 0 44.536 0 80.64 36.104 80.64 80.64s-36.104 80.64-80.64 80.64c-44.536 0-80.64-36.104-80.64-80.64 0-22.269 9.027-42.431 23.622-57.024v0c14.22-14.578 34.057-23.62 56.006-23.62 0.29 0 0.58 0.002 0.87 0.005h-0.044zM295.872 528.768c14.762-0.11 26.687-12.102 26.687-26.879 0-14.845-12.035-26.88-26.88-26.88s-26.88 12.035-26.88 26.88c0 7.423 3.009 14.143 7.873 19.007v0c4.667 4.862 11.22 7.882 18.478 7.882 0.254 0 0.507-0.004 0.759-0.011l-0.037 0.001z" />
<glyph unicode="&#xe946;" glyph-name="share" data-tags="share" d="M818.688 345.088c0.368 0.002 0.804 0.004 1.24 0.004 28.406 0 55.415-5.983 79.835-16.759l-1.267 0.499c25.29-11.076 46.906-25.905 65.233-44.049l-0.017 0.017c18.3-18.125 33.156-39.688 43.526-63.646l0.506-1.314c10.117-23.509 16-50.876 16-79.616s-5.883-56.106-16.511-80.96l0.511 1.344c-10.841-25.396-25.704-47.069-44.021-65.269l-0.011-0.011c-18.285-18.088-39.911-32.844-63.863-43.252l-1.353-0.524c-23.479-10.115-50.813-15.998-79.52-15.998s-56.040 5.883-80.86 16.508l1.34-0.51c-25.311 10.915-46.939 25.673-65.232 43.792l0.016-0.016c-18.328 18.211-33.191 39.884-43.528 63.96l-0.504 1.32c-10.116 23.111-16.003 50.044-16.003 78.352 0 0.399 0.001 0.799 0.004 1.198v-0.062c0 0.059 0 0.128 0 0.198 0 12.277 1.094 24.299 3.191 35.973l-0.183-1.227c2.206 12.678 5.16 23.78 8.963 34.479l-0.451-1.455-251.008 125.504c-9.57-14.008-20.108-26.212-31.863-37.122l-0.137-0.126c-11.695-10.759-24.812-20.286-38.955-28.199l-1.045-0.537c-13.361-7.492-28.831-13.816-45.106-18.172l-1.422-0.324c-15.427-4.146-33.139-6.527-51.407-6.527-28.713 0-56.052 5.883-80.877 16.51l1.341-0.51c-49.375 21.314-87.934 59.873-108.734 107.914l-0.514 1.334c-10.115 23.479-15.998 50.813-15.998 79.52s5.883 56.040 16.508 80.86l-0.51-1.34c21.314 49.375 59.873 87.934 107.914 108.734l1.334 0.514c23.484 10.116 50.823 15.999 79.537 15.999 18.268 0 35.98-2.381 52.842-6.851l-1.435 0.323c17.697-4.68 33.167-11.004 47.563-19.025l-1.035 0.529c15.188-8.45 28.305-17.977 40.147-28.87l-0.147 0.134c11.875-11.047 22.411-23.249 31.52-36.508l0.48-0.74 251.008 125.504c-3.352 9.244-6.306 20.346-8.328 31.769l-0.184 1.255c-1.914 10.433-3.008 22.44-3.008 34.702 0 0.085 0 0.17 0 0.255v-0.013c-0.003 0.435-0.005 0.95-0.005 1.465 0 28.283 5.888 55.191 16.505 79.565l-0.499-1.287c10.894 25.287 25.748 46.868 44.020 65.012l0.012 0.012c18.299 18.125 39.919 32.938 63.859 43.437l1.357 0.531c23.448 10.314 50.783 16.318 79.52 16.318s56.072-6.003 80.819-16.824l-1.299 0.506c25.29-11.052 46.906-25.862 65.236-43.987l-0.020 0.019c18.283-18.155 33.137-39.737 43.523-63.704l0.509-1.32c10.117-23.55 16-50.96 16-79.744s-5.883-56.194-16.512-81.094l0.512 1.35c-10.876-25.272-25.732-46.835-44.016-64.944l-0.016-0.016c-18.31-18.127-39.926-32.956-63.856-43.497l-1.36-0.535c-23.545-10.277-50.978-16.256-79.808-16.256-18.196 0-35.836 2.382-52.624 6.851l1.425-0.323c-17.688 4.645-33.162 10.971-47.543 19.017l1.015-0.521c-29.455 16.415-53.716 38.834-71.788 65.756l-0.468 0.74-251.008-125.504c3.361-9.319 6.316-20.51 8.33-32.025l0.182-1.255c1.914-10.487 3.008-22.556 3.008-34.88s-1.094-24.393-3.191-36.114l0.183 1.234c-2.228-12.675-5.181-23.754-8.969-34.437l0.457 1.477 251.008-125.504c9.57 14.008 20.108 26.212 31.863 37.122l0.137 0.126c11.695 10.759 24.812 20.286 38.955 28.199l1.045 0.537c13.361 7.492 28.831 13.816 45.106 18.172l1.422 0.324c15.042 4.067 32.312 6.403 50.128 6.403 0.377 0 0.754-0.001 1.13-0.003h-0.058zM818.688 908.288c-0.228 0.001-0.498 0.002-0.769 0.002-21.208 0-41.382-4.427-59.647-12.408l0.96 0.374c-18.968-8.137-35.156-19.259-48.76-32.952l-0.008-0.008c-13.52-13.73-24.63-29.882-32.612-47.737l-0.412-1.031c-7.726-17.62-12.222-38.157-12.222-59.744s4.496-42.124 12.603-60.725l-0.381 0.981c8.394-18.886 19.504-35.038 33.044-48.789l-0.020 0.021c13.597-13.745 29.789-24.891 47.785-32.647l0.983-0.377c17.265-7.567 37.388-11.971 58.54-11.971 0.322 0 0.644 0.001 0.966 0.003h-0.049c0.339-0.003 0.741-0.004 1.142-0.004 42.081 0 80.162 17.129 107.649 44.796l0.008 0.008c13.522 13.718 24.615 29.874 32.553 47.742l0.407 1.026c7.768 17.613 12.29 38.151 12.29 59.744s-4.522 42.131-12.67 60.716l0.38-0.972c-8.345 18.895-19.438 35.050-32.979 48.787l0.019-0.019c-13.623 13.662-29.809 24.76-47.775 32.515l-0.993 0.381c-17.414 7.608-37.705 12.035-59.031 12.035-0.352 0-0.704-0.001-1.055-0.004h0.054zM204.736 293.888c0.214-0.001 0.467-0.002 0.721-0.002 21.242 0 41.434 4.5 59.673 12.598l-0.938-0.372c36.88 16.088 65.704 44.912 81.401 80.79l0.391 1.002c7.726 17.62 12.222 38.157 12.222 59.744s-4.496 42.124-12.603 60.725l0.381-0.981c-16.088 36.88-44.912 65.704-80.79 81.401l-1.002 0.391c-17.301 7.726-37.493 12.226-58.735 12.226-0.254 0-0.507-0.001-0.76-0.002h0.039c-0.29 0.002-0.632 0.003-0.975 0.003-21.353 0-41.654-4.499-60.009-12.602l0.952 0.375c-36.876-16.067-65.688-44.9-81.339-80.79l-0.389-1.002c-7.768-17.613-12.29-38.151-12.29-59.744s4.522-42.131 12.67-60.716l-0.38 0.972c8.24-18.932 19.347-35.104 32.965-48.773l-0.005 0.005c13.686-13.596 29.851-24.718 47.753-32.624l1.015-0.4c17.403-7.728 37.705-12.227 59.057-12.227 0.343 0 0.685 0.001 1.028 0.003h-0.053zM818.688-13.312c0.253-0.002 0.552-0.002 0.852-0.002 42.173 0 80.346 17.124 107.945 44.799l0.003 0.003c13.566 13.773 24.667 30.021 32.558 47.997l0.402 1.027c7.768 17.613 12.29 38.151 12.29 59.744s-4.522 42.131-12.67 60.716l0.38-0.972c-8.24 18.932-19.347 35.104-32.965 48.773l0.005-0.005c-13.649 13.579-29.828 24.631-47.766 32.383l-1.002 0.385c-17.369 7.569-37.605 11.972-58.87 11.972-0.409 0-0.817-0.002-1.225-0.005h0.063c-0.272 0.002-0.594 0.003-0.916 0.003-21.151 0-41.274-4.404-59.502-12.344l0.962 0.373c-18.949-8.112-35.132-19.167-48.771-32.771l0.003 0.003c-13.612-13.677-24.736-29.844-32.627-47.757l-0.397-1.011c-7.726-17.62-12.222-38.157-12.222-59.744s4.496-42.124 12.603-60.725l-0.381 0.981c8.341-18.996 19.459-35.239 33.045-49.046l-0.021 0.022c13.598-13.723 29.79-24.849 47.784-32.584l0.984-0.376c17.306-7.607 37.48-12.034 58.687-12.034 0.27 0 0.54 0.001 0.81 0.002h-0.042z" />
<glyph unicode="&#xe947;" glyph-name="time" data-tags="time" d="M990.464 518.016c-3.281 6.977-10.232 11.73-18.298 11.776h-59.846c-40.336 209.009-221.814 364.72-439.661 364.72-247.070 0-447.36-200.29-447.36-447.36s200.29-447.36 447.36-447.36c164.902 0 308.965 89.221 386.548 222.024l1.144 2.121c3.41 5.848 5.423 12.872 5.423 20.367 0 14.97-8.031 28.064-20.019 35.209l-0.188 0.104c-5.795 3.448-12.777 5.486-20.235 5.486-14.873 0-27.854-8.105-34.766-20.139l-0.103-0.195c-64.606-111.375-183.281-185.081-319.17-185.081-203.099 0-367.744 164.645-367.744 367.744s164.645 367.744 367.744 367.744c173.894 0 319.598-120.698 357.906-282.889l0.497-2.494h-59.392c-0.003 0-0.007 0-0.011 0-8.083 0-15.051-4.772-18.241-11.652l-0.052-0.124c-1.201-2.527-1.902-5.491-1.902-8.619 0-4.987 1.782-9.557 4.745-13.109l-0.027 0.033 100.928-122.24c3.69-4.509 9.256-7.365 15.488-7.365s11.798 2.855 15.46 7.329l0.028 0.035 100.928 122.24c2.936 3.519 4.718 8.090 4.718 13.077 0 3.128-0.701 6.092-1.955 8.744l0.053-0.125zM475.712 794.752c-22.327-0.109-40.384-18.233-40.384-40.576 0-0.068 0-0.135 0-0.203v0.010-247.36c-18.43-13.079-30.31-34.338-30.31-58.371 0-39.177 31.571-70.98 70.659-71.357h0.036c10.902 0.090 21.172 2.704 30.283 7.284l-0.395-0.18 140.416-81.856c5.745-3.458 12.679-5.504 20.092-5.504 0.024 0 0.048 0 0.072 0h-0.004c14.931 0.007 27.96 8.142 34.904 20.22l0.104 0.196c3.41 5.848 5.423 12.872 5.423 20.367 0 14.97-8.031 28.064-20.019 35.209l-0.188 0.104-140.8 81.92c-1.841 21.556-13.047 40.17-29.482 51.95l-0.214 0.146v247.424c0 0.001 0 0.001 0 0.002 0 22.274-17.948 40.357-40.171 40.574h-0.021zM475.712 417.664c-0.095-0.001-0.207-0.002-0.32-0.002-16.895 0-30.592 13.697-30.592 30.592s13.697 30.592 30.592 30.592c16.895 0 30.591-13.696 30.592-30.59v0c0-0.038 0-0.083 0-0.129 0-16.757-13.53-30.355-30.262-30.463h-0.010z" />
<glyph unicode="&#xe948;" glyph-name="views" data-tags="views" horiz-adv-x="1152" d="M1131.84 500.928c-12.416 15.040-25.6 29.056-38.4 41.856-68.409 71.181-146.985 131.889-233.548 179.958l-5.044 2.57c-52.591 29.355-113.595 52.171-178.152 65.174l-4.056 0.682c-28.355 5.338-60.975 8.391-94.307 8.391-0.978 0-1.955-0.003-2.931-0.008l0.151 0.001c-1.524 0.016-3.324 0.025-5.127 0.025-33.162 0-65.609-3.060-97.075-8.912l3.258 0.503c-68.644-13.926-129.62-36.721-185.551-67.545l3.343 1.689c-91.628-50.588-170.211-111.302-238.273-182.193l-0.319-0.335c-14.528-14.72-27.008-28.224-38.4-41.856-12.010-13.955-19.323-32.251-19.323-52.256s7.313-38.301 19.412-52.361l-0.089 0.105c37.236-43.608 77.424-82.517 121.001-117.367l1.751-1.353c88.724-78.055 196.409-136.79 315.151-168.42l5.489-1.244c33.084-7.336 71.083-11.539 110.064-11.539 1.581 0 3.16 0.007 4.737 0.021l-0.241-0.002c1.070-0.008 2.335-0.012 3.601-0.012 38.646 0 76.31 4.201 112.562 12.17l-3.458-0.638c124.754 32.407 232.926 91.216 322.703 170.397l-0.847-0.733c44.881 36.162 84.698 75.066 120.543 117.438l1.057 1.282c12.327 13.893 19.857 32.286 19.857 52.438 0 19.981-7.402 38.234-19.615 52.164l0.078-0.091zM1079.232 442.88c-33.975-40.537-70.924-76.492-111.201-108.433l-1.567-1.199c-80.668-71.706-178.979-125.408-287.527-153.794l-4.889-1.086c-29.51-6.591-63.402-10.368-98.177-10.368-0.044 0-0.089 0-0.133 0h-1.85c-0.148 0-0.322 0-0.497 0-34.221 0-67.56 3.777-99.623 10.937l3.032-0.569c-113.823 29.678-212.514 83.348-294.48 155.557l0.784-0.677c-41.424 32.985-77.954 68.946-110.421 108.377l-1.003 1.255c-4.416 3.2-4.416 7.040 0 11.584 5.294 7.093 10.622 13.354 16.314 19.261l-0.058-0.061c8 8.576 13.76 14.848 16.896 18.752 63.368 65.776 136.43 121.614 217.013 165.355l4.683 2.325c46.967 26.323 101.412 47.049 158.995 59.288l3.821 0.68c25.951 4.878 55.83 7.694 86.357 7.744h0.043c0.023 0 0.050 0 0.077 0 30.29 0 59.921-2.818 88.646-8.206l-2.963 0.462c61.407-12.947 115.849-33.67 165.796-61.492l-2.98 1.524c84.958-45.743 157.667-101.614 220.134-167.314l0.346-0.366c16.256-16.832 27.776-29.504 34.432-38.4 1.367-1.451 2.207-3.411 2.207-5.568s-0.84-4.117-2.211-5.572l0.004 0.004zM576 675.072c-0.889 0.014-1.939 0.021-2.99 0.021-60.508 0-115.053-25.53-153.45-66.406l-0.103-0.111c-39.892-40.109-64.55-95.404-64.55-156.458 0-1.448 0.014-2.893 0.041-4.334l-0.003 0.216c-0.029-1.336-0.046-2.91-0.046-4.488 0-60.757 24.676-115.751 64.552-155.507l0.005-0.005c38.559-40.54 92.904-65.755 153.138-65.755 1.198 0 2.393 0.010 3.586 0.030l-0.18-0.002c0.896-0.014 1.953-0.022 3.012-0.022 59.697 0 113.498 25.242 151.313 65.634l0.107 0.116c39.883 39.925 64.549 95.059 64.549 155.954 0 1.422-0.013 2.842-0.040 4.258l0.003-0.212c0.019 1.094 0.030 2.385 0.030 3.678 0 61.191-24.649 116.626-64.559 156.916l0.017-0.017c-37.846 40.955-91.835 66.513-151.793 66.513-0.928 0-1.854-0.006-2.779-0.018l0.14 0.001zM681.792 338.368c-25.869-27.616-62.56-44.823-103.27-44.823-0.887 0-1.772 0.008-2.655 0.024l0.132-0.002c-0.527-0.007-1.15-0.011-1.773-0.011-41.535 0-78.959 17.601-105.221 45.75l-0.078 0.085c-27.51 28.174-44.481 66.745-44.481 109.28s16.971 81.106 44.511 109.311l-0.030-0.031c26.34 28.234 63.764 45.835 105.299 45.835 0.623 0 1.246-0.004 1.867-0.012l-0.094 0.001c0.546 0.008 1.192 0.012 1.838 0.012 41.117 0 78.117-17.624 103.859-45.73l0.096-0.106c27.189-28.456 43.923-67.103 43.923-109.658 0-42.685-16.837-81.438-44.231-109.98l0.052 0.055z" />
<glyph unicode="&#xe949;" glyph-name="clock-small" data-tags="clock-small" d="M512 960v0c-282.77 0-512-229.23-512-512v0c0-282.77 229.23-512 512-512s512 229.23 512 512c0 282.77-229.23 512-512 512zM409.6 755.2h102.4v-409.6h-102.4v409.6zM512 448h307.2v-102.4h-307.2v102.4z" />
<glyph unicode="&#xe94a;" glyph-name="comment-small" data-tags="comment-small" d="M102.4 960v0c-56.554 0-102.4-45.846-102.4-102.4v-614.4c0-56.554 45.846-102.4 102.4-102.4h102.4v-204.8l307.2 204.8h409.6c56.554 0 102.4 45.846 102.4 102.4v614.4c0 56.554-45.846 102.4-102.4 102.4h-819.2zM204.8 755.2h614.4v-102.4h-614.4v102.4zM204.8 448h614.4v-102.4h-614.4v102.4z" />
<glyph unicode="&#xe94b;" glyph-name="user-small" data-tags="user-small" d="M522.24 365.056c-153.27 9.209-274.083 135.76-274.083 290.527 0 5.144 0.133 10.257 0.397 15.336l-0.029-0.711c-0.424 5.715-0.666 12.38-0.666 19.102 0 151.565 122.867 274.432 274.432 274.432s274.432-122.867 274.432-274.432c0-6.722-0.242-13.387-0.717-19.987l0.051 0.885c0.231-4.337 0.362-9.414 0.362-14.522 0-154.822-120.855-281.417-273.372-290.591l-0.808-0.039zM89.6-61.952c-1.998-0.134-4.33-0.21-6.681-0.21-29.785 0-56.714 12.227-76.041 31.937l-0.017 0.017c-3.926 10.145-6.201 21.886-6.201 34.158 0 16.734 4.23 32.48 11.678 46.227l-0.254-0.513 22.835 52.224c38.996 86.746 84.247 161.476 137.272 229.875l-1.899-2.547c19.039 22.488 47.29 36.668 78.852 36.668 19.211 0 37.194-5.253 52.593-14.402l-0.475 0.261c23.451-16.563 43.821-35.112 61.684-55.879l0.37-0.441c34.461-29.349 79.498-47.202 128.704-47.202 2.201 0 4.394 0.036 6.578 0.107l-0.319-0.008h42.291c1.868-0.063 4.065-0.099 6.269-0.099 49.17 0 94.17 17.855 128.87 47.434l-0.278-0.231c18.115 21.543 38.282 40.41 60.478 56.672l0.962 0.672c13.643 8.305 30.142 13.221 47.789 13.221 30.13 0 56.912-14.331 73.903-36.549l0.164-0.224c50.614-66.136 94.061-141.778 126.894-222.854l2.334-6.522 23.45-52.224c7.561-13.377 12.017-29.375 12.017-46.413 0-11.635-2.078-22.784-5.882-33.098l0.214 0.663c-17.101-19.084-41.825-31.036-69.341-31.036-2.697 0-5.368 0.115-8.007 0.34l0.344-0.024h-850.944z" />
<glyph unicode="&#xe94c;" glyph-name="envelope" data-tags="envelope" d="M34.133 725.333c27.733-15.36 412.16-228.693 426.667-237.227 15.143-7.007 32.865-11.094 51.541-11.094s36.398 4.087 52.32 11.416l-0.778-0.321c14.336 8.533 398.677 221.867 426.667 237.227s54.016 64 3.072 64h-962.56c-50.944 0-24.747-48.64 3.072-64zM1001.984 607.573c-31.573-17.067-418.987-226.133-438.272-237.227-15.143-7.007-32.865-11.094-51.541-11.094s-36.398 4.087-52.32 11.416l0.778-0.321c-19.285 11.093-406.699 220.16-438.272 237.227-22.187 11.947-22.016-1.707-22.016-12.8v-431.787c4.548-29.119 27.274-51.817 56.029-56.272l0.376-0.048h910.848c29.132 4.503 51.858 27.201 56.357 55.941l0.049 0.379v431.787c0 11.093 0 24.747-22.016 12.8z" />
<glyph unicode="&#xe94d;" glyph-name="envelope-solid" data-tags="envelope-solid" d="M928 832h-832c-53.020 0-96-42.98-96-96v-576c0-53.020 42.98-96 96-96h832c53.020 0 96 42.98 96 96v576c0 53.020-42.98 96-96 96zM928 736v-81.61c-44.844-36.518-116.336-93.302-269.174-212.98-33.682-26.494-100.402-90.144-146.826-89.402-46.416-0.75-113.158 62.918-146.826 89.402-152.814 119.66-224.324 176.456-269.174 212.98v81.61h832zM96 160v371.204c45.828-36.502 110.818-87.724 209.876-165.292 43.714-34.41 120.268-110.372 206.124-109.91 85.434-0.462 161.018 74.398 206.106 109.894 99.056 77.566 164.064 128.802 209.894 165.306v-371.202h-832z" />
<glyph unicode="&#xe94e;" glyph-name="about-blog" data-tags="about-blog" d="M502.743 94.433c-3.619 3.611-8.614 5.843-14.131 5.843-11.046 0-20.001-8.95-20.009-19.994v-0.001c0.356-10.772 9.173-19.369 19.999-19.369s19.643 8.597 19.998 19.336l0.001 0.033c-0.024 5.522-2.257 10.517-5.859 14.153l0.002-0.002zM598.016 278.917v147.169c0 0.003 0 0.006 0 0.009 0 11.039-8.949 19.988-19.988 19.988-2.686 0-5.248-0.53-7.588-1.491l0.133 0.048-344.699-138.793h-111.002c-63.442 0-114.872-51.43-114.872-114.872s51.43-114.872 114.872-114.872h13.21v-120.095c0-0.006 0-0.013 0-0.020 0-11.039 8.949-19.988 19.988-19.988 0.007 0 0.014 0 0.022 0h81.632c0.006 0 0.013 0 0.020 0 11.039 0 19.988 8.949 19.988 19.988 0 0.007 0 0.014 0 0.022v-0.001 110.449l320.84-129.024c2.173-0.92 4.7-1.454 7.352-1.454 0.007 0 0.015 0 0.022 0h-0.001c4.197 0.030 8.092 1.302 11.34 3.468l-0.076-0.048c5.343 3.639 8.806 9.693 8.806 16.557 0 0.011 0 0.022 0 0.033v-0.002 147.149c40.501 9.398 70.224 45.173 70.224 87.89s-29.723 78.492-69.616 87.771l-0.608 0.119zM209.736-24.003h-41.656v100.106h41.656v-100.106zM209.736 116.101h-94.863c-41.352 0-74.875 33.523-74.875 74.875s33.523 74.875 74.875 74.875v0h94.863v-149.75zM557.896-14.397v0l-308.040 123.965v162.775l218.849 88.064v-198.492c0.356-10.772 9.173-19.369 19.999-19.369s19.643 8.597 19.998 19.336l0.001 0.033v214.671l49.275 19.886v-410.87zM598.036 145.080v91.976c17.881-7.931 30.128-25.527 30.128-45.983 0-20.464-12.256-38.066-29.829-45.866l-0.32-0.127zM858.952 210.452h-113.254c-0.191 0.007-0.415 0.010-0.64 0.010-11.051 0-20.009-8.958-20.009-20.009s8.958-20.009 20.009-20.009c0.225 0 0.449 0.004 0.673 0.011l-0.033-0.001h113.254c0.267-0.013 0.58-0.020 0.895-0.020 11.051 0 20.009 8.958 20.009 20.009s-8.958 20.009-20.009 20.009c-0.322 0-0.642-0.008-0.96-0.023l0.045 0.002zM765.972 357.007c-3.617 3.616-8.613 5.852-14.131 5.852s-10.514-2.236-14.131-5.852v0l-38.912-39.055c-3.621-3.618-5.861-8.618-5.861-14.141 0-11.041 8.951-19.992 19.992-19.992 5.518 0 10.514 2.236 14.131 5.85v0l38.912 39.055c3.692 3.582 5.983 8.589 5.983 14.132 0 5.552-2.299 10.568-5.998 14.146l-0.005 0.005zM767.611 54.047l-40.55 40.366c-3.617 3.615-8.613 5.85-14.131 5.85-11.041 0-19.992-8.951-19.992-19.992 0-5.523 2.24-10.523 5.86-14.141v0l40.346-40.366c3.706-3.596 8.758-5.824 14.329-5.857h0.007c11.027 0.031 19.954 8.978 19.954 20.009 0 5.517-2.233 10.512-5.844 14.132v0zM943.923 960h-371.917c-44.151-0.081-79.922-35.845-80.015-79.986v-8.078h-335.995c-26.496-0.023-47.97-21.49-48.005-47.981v-316.009c0.035-26.498 21.507-47.97 48.002-48.005h20.667v-61.44c0.020-11.036 8.97-19.974 20.009-19.974 5.517 0 10.512 2.233 14.132 5.844v0l75.489 75.469h397.312c26.473 0.058 47.912 21.526 47.923 48.004v60.007h212.378c44.196 0 80.030 35.805 80.077 79.99v232.165c-0.047 44.183-35.869 79.983-80.055 79.995h-0.001zM691.61 508.006c-0.034-4.401-3.587-7.962-7.983-8.008h-405.631c-5.519-0.002-10.515-2.24-14.131-5.857v0l-47.206-47.104v33.055c0 11.039-8.949 19.988-19.988 19.988v0h-40.673c-4.418 0.012-7.996 3.59-8.008 8.007v315.925c0.012 4.414 3.592 7.987 8.008 7.987 0 0 0 0 0 0h335.995v-183.992c0.093-44.15 35.864-79.913 80.007-79.995h119.611v-60.006zM984.064 648.008c-0.070-22.105-18.005-39.997-40.12-39.997-0.007 0-0.015 0-0.022 0h-371.916c-22.059 0.012-39.936 17.896-39.936 39.956 0 0.014 0 0.029 0 0.043v-0.002 231.997c0 0.012 0 0.027 0 0.041 0 22.060 17.877 39.945 39.935 39.956h371.918c0.006 0 0.013 0 0.021 0 22.115 0 40.050-17.892 40.12-39.991v-232.004zM838.246 781.312l-136.806 79.032c-2.874 1.71-6.337 2.721-10.036 2.721-10.971 0-19.866-8.894-19.866-19.866 0-0.057 0-0.113 0.001-0.17v0.009-158.065c0-0.041 0-0.089 0-0.137 0-7.28 3.907-13.647 9.739-17.118l0.092-0.050c2.884-1.671 6.342-2.664 10.030-2.683h0.005c0.023 0 0.049 0 0.076 0 3.669 0 7.104 0.996 10.052 2.734l-0.093-0.050 136.806 79.012c6.044 3.504 10.045 9.943 10.045 17.316s-4 13.812-9.949 17.265l-0.096 0.051zM711.475 719.606v88.842l76.8-44.38zM429.015 749.998h-199.987c-0.191 0.007-0.415 0.010-0.64 0.010-11.051 0-20.009-8.958-20.009-20.009s8.958-20.009 20.009-20.009c0.225 0 0.449 0.004 0.673 0.011l-0.033-0.001h199.987c0.191-0.007 0.415-0.010 0.64-0.010 11.051 0 20.009 8.958 20.009 20.009s-8.958 20.009-20.009 20.009c-0.225 0-0.449-0.004-0.673-0.011l0.033 0.001zM443.167 632.136c-3.613 3.608-8.601 5.84-14.111 5.84-11.028 0-19.968-8.94-19.968-19.968s8.94-19.968 19.968-19.968c11.027 0 19.966 8.938 19.968 19.965v0c-0.021 5.516-2.254 10.506-5.858 14.132l0.001-0.001zM353.997 637.993h-124.928c-0.191 0.007-0.415 0.010-0.64 0.010-11.051 0-20.009-8.958-20.009-20.009s8.958-20.009 20.009-20.009c0.225 0 0.449 0.004 0.673 0.011l-0.033-0.001h124.928c0.191-0.007 0.415-0.010 0.64-0.010 11.051 0 20.009 8.958 20.009 20.009s-8.958 20.009-20.009 20.009c-0.225 0-0.449-0.004-0.673-0.011l0.033 0.001z" />
<glyph unicode="&#xe94f;" glyph-name="about-contact-us" data-tags="about-contact-us" d="M1016.422 711.229s0 0.123-0.205 0.184l-65.126 50.708v177.889c0 0.037 0 0.080 0 0.123 0 10.971-8.894 19.866-19.866 19.866 0 0 0 0 0 0h-366.387c-0.006 0-0.013 0-0.021 0-11.052 0-20.015-8.942-20.050-19.985v-176.295l-65.331-52.49c-0.186-0.068-0.333-0.207-0.408-0.385l-0.002-0.005c-0.163-0.070-0.298-0.139-0.428-0.215l0.018 0.010c-4.032-3.643-6.554-8.891-6.554-14.728 0-0.064 0-0.127 0.001-0.191v0.010-254.956c0.023-34.602 28.067-62.645 62.667-62.669h341.199v-94.208c-0.614 0-1.229 0-1.843 0h-834.15v466.125h388.301c0.191-0.007 0.415-0.010 0.64-0.010 11.051 0 20.009 8.958 20.009 20.009s-8.958 20.009-20.009 20.009c-0.225 0-0.449-0.004-0.673-0.011l0.033 0.001h-408.166c0 0 0 0 0 0-11.063 0-20.035-8.951-20.070-20.006v-629.21c0.035-11.047 8.998-19.988 20.050-19.988 0.007 0 0.014 0 0.022 0h337.919v-62.239h-78.029c-10.974-0.011-19.866-8.91-19.866-19.886 0-0.043 0-0.086 0-0.13v0.007-82.555c0-0.037 0-0.080 0-0.123 0-10.976 8.892-19.875 19.865-19.886h356.148c0.006 0 0.013 0 0.021 0 11.059 0 20.027 8.953 20.050 20.007v82.557c-0.023 11.056-8.991 20.009-20.050 20.009-0.007 0-0.014 0-0.022 0h-78.028v62.239h337.92c0.006 0 0.013 0 0.021 0 11.052 0 20.015 8.942 20.050 19.985v237.202h45.261c34.602 0.023 62.645 28.067 62.669 62.667v254.958c0 0.034 0 0.075 0 0.116 0 6.277-2.948 11.866-7.535 15.457l-0.043 0.032zM616.038 18.575v-42.578h-316.006v42.578h316.006zM398.131 58.573v62.239h120.013v-62.239h-120.013zM875.93 160.809h-835.994v83.046h834.15c0.614 0 1.229 0 1.843 0v-83.128zM951.091 711.434l22.733-17.674-22.733-22.692v40.366zM911.77 631.747l-77.414-77.496-31.744 28.672c-14.36 13.163-33.579 21.229-54.682 21.229s-40.322-8.066-54.742-21.283l0.060 0.054-31.539-28.672-76.8 76.82v288.932h326.246zM544.768 712.417v-41.349l-22.938 22.938zM518.758 424.489c-4.155 4.138-6.733 9.855-6.758 16.174v206.669l120.013-120.013zM896.41 417.997h-325.222l149.094 135.393c7.285 6.685 17.039 10.782 27.75 10.782s20.465-4.097 27.781-10.809l-0.030 0.027 149.094-135.393h-28.467zM984.064 647.373v-206.664c-0.003-6.366-2.673-12.108-6.953-16.17l-0.010-0.009-113.050 102.83zM248.013 698.040c-0.018 0-0.040 0-0.061 0-88.371 0-160.010-71.639-160.010-160.010s71.639-160.010 160.010-160.010c88.371 0 160.010 71.639 160.010 160.010 0 0.007 0 0.014 0 0.022v-0.001c-0.093 88.3-71.649 159.856-159.94 159.949h-0.009zM324.198 445.399c-20.532-17.029-47.152-27.362-76.186-27.362s-55.654 10.333-76.384 27.521l0.198-0.16v7.209c0.010 5.507 3.57 10.179 8.513 11.852l0.088 0.026 39.731 13.189c8.196-3.713 17.772-5.877 27.853-5.877s19.657 2.164 28.288 6.053l-0.435-0.175 39.731-13.189c5.031-1.699 8.591-6.372 8.602-11.877v-7.21zM219.341 540.549v12.718c0 15.892 12.883 28.774 28.774 28.774s28.774-12.883 28.774-28.774v0-12.718c-0.060-9.836-5.039-18.496-12.598-23.652l-0.1-0.064c-0.463-0.333-0.998-0.672-1.553-0.98l-0.086-0.044c-4.153-2.522-9.172-4.014-14.541-4.014s-10.388 1.492-14.667 4.085l0.126-0.071c-0.614 0.369-1.024 0.696-1.638 1.004-7.585 5.235-12.493 13.88-12.493 23.671 0 0.009 0 0.017 0 0.026v-0.001zM354.509 482.939c-6.41 9.003-15.381 15.81-25.845 19.407l-0.37 0.11-19.251 6.369c4.889 9.207 7.766 20.127 7.782 31.718v12.723c0 38.004-30.809 68.813-68.813 68.813s-68.813-30.809-68.813-68.813v0-12.718c0.016-11.596 2.894-22.517 7.963-32.098l-0.181 0.375-19.046-6.369c-10.924-3.647-19.976-10.468-26.311-19.358l-0.108-0.16c-8.516 15.977-13.517 34.94-13.517 55.072 0 0.014 0 0.028 0 0.042v-0.002c0 66.281 53.732 120.013 120.013 120.013s120.013-53.732 120.013-120.013v0c0-0.048 0-0.105 0-0.163 0-20.131-5.001-39.095-13.829-55.716l0.312 0.644zM839.68 857.129h-184.32c-10.772-0.356-19.369-9.173-19.369-19.999s8.597-19.643 19.336-19.998l0.033-0.001h184.32c0.191-0.007 0.415-0.010 0.64-0.010 11.051 0 20.009 8.958 20.009 20.009s-8.958 20.009-20.009 20.009c-0.225 0-0.449-0.004-0.673-0.011l0.033 0.001zM757.965 775.209h-102.605c-10.772-0.356-19.369-9.173-19.369-19.999s8.597-19.643 19.336-19.998l0.033-0.001h102.605c10.772 0.356 19.369 9.173 19.369 19.999s-8.597 19.643-19.336 19.998l-0.033 0.001zM839.68 693.289h-103.014c-10.772-0.356-19.369-9.173-19.369-19.999s8.597-19.643 19.336-19.998l0.033-0.001h103.014c0.191-0.007 0.415-0.010 0.64-0.010 11.051 0 20.009 8.958 20.009 20.009s-8.958 20.009-20.009 20.009c-0.225 0-0.449-0.004-0.673-0.011l0.033 0.001zM655.974 693.289h-0.614c-0.191 0.007-0.415 0.010-0.64 0.010-11.051 0-20.009-8.958-20.009-20.009s8.958-20.009 20.009-20.009c0.225 0 0.449 0.004 0.673 0.011l-0.033-0.001h0.614c0.191-0.007 0.415-0.010 0.64-0.010 11.051 0 20.009 8.958 20.009 20.009s-8.958 20.009-20.009 20.009c-0.225 0-0.449-0.004-0.673-0.011l0.033 0.001zM839.68 775.209h-0.614c-0.191 0.007-0.415 0.010-0.64 0.010-11.051 0-20.009-8.958-20.009-20.009s8.958-20.009 20.009-20.009c0.225 0 0.449 0.004 0.673 0.011l-0.033-0.001h0.614c10.772 0.356 19.369 9.173 19.369 19.999s-8.597 19.643-19.336 19.998l-0.033 0.001z" />
<glyph unicode="&#xe950;" glyph-name="about-services" data-tags="about-services" d="M768 723.313h-130.048c-10.772-0.356-19.369-9.173-19.369-19.999s8.597-19.643 19.336-19.998l0.033-0.001h130.048c0.191-0.007 0.415-0.010 0.64-0.010 11.051 0 20.009 8.958 20.009 20.009s-8.958 20.009-20.009 20.009c-0.225 0-0.449-0.004-0.673-0.011l0.033 0.001zM768 643.318h-130.048c-10.772-0.356-19.369-9.173-19.369-19.999s8.597-19.643 19.336-19.998l0.033-0.001h130.048c0.191-0.007 0.415-0.010 0.64-0.010 11.051 0 20.009 8.958 20.009 20.009s-8.958 20.009-20.009 20.009c-0.225 0-0.449-0.004-0.673-0.011l0.033 0.001zM383.59 369.992h-127.59c-0.191 0.007-0.415 0.010-0.64 0.010-11.051 0-20.009-8.958-20.009-20.009s8.958-20.009 20.009-20.009c0.225 0 0.449 0.004 0.673 0.011l-0.033-0.001h127.59c0.191-0.007 0.415-0.010 0.64-0.010 11.051 0 20.009 8.958 20.009 20.009s-8.958 20.009-20.009 20.009c-0.225 0-0.449-0.004-0.673-0.011l0.033 0.001zM482.099 364.134c-3.615 3.62-8.611 5.86-14.131 5.86s-10.517-2.24-14.131-5.86v0c-3.699-3.643-5.991-8.705-5.991-14.303 0-11.085 8.986-20.070 20.070-20.070s20.070 8.986 20.070 20.070c0 5.547-2.25 10.568-5.887 14.201v0zM467.968 450.007h-211.968c-0.191 0.007-0.415 0.010-0.64 0.010-11.051 0-20.009-8.958-20.009-20.009s8.958-20.009 20.009-20.009c0.225 0 0.449 0.004 0.673 0.011l-0.033-0.001h211.968c11.056 0 20.019 8.963 20.019 20.019s-8.963 20.019-20.019 20.019v0zM977.92 572.129h-7.987v197.878c0 0.037 0 0.080 0 0.123 0 10.971-8.894 19.866-19.866 19.866 0 0 0 0 0 0h-74.138v150.016c0 0.037 0 0.080 0 0.123 0 10.971-8.894 19.866-19.866 19.866 0 0 0 0 0 0h-538.829c-10.772-0.356-19.369-9.173-19.369-19.999s8.597-19.643 19.336-19.998l0.033-0.001h518.758v-347.873h-205.824c-25.447-0.058-46.057-20.689-46.080-46.139v-239.782c0.023-25.452 20.633-46.083 46.074-46.141h37.28l46.49-46.428c3.615-3.62 8.611-5.86 14.131-5.86s10.517 2.24 14.131 5.86v0l46.285 46.428h141.517v-76.124h-835.994v76.001h434.586c0.191-0.007 0.415-0.010 0.64-0.010 11.051 0 20.009 8.958 20.009 20.009s-8.958 20.009-20.009 20.009c-0.225 0-0.449-0.004-0.673-0.011l0.033 0.001h-340.582v432.067h39.936c0.006 0 0.013 0 0.021 0 11.052 0 20.015 8.942 20.050 19.985v208.018c-0.035 11.047-8.998 19.988-20.050 19.988-0.007 0-0.014 0-0.022 0h-207.871c-0.006 0-0.013 0-0.021 0-11.052 0-20.015-8.942-20.050-19.985v-208.018c0.035-11.047 8.998-19.988 20.050-19.988 0.007 0 0.014 0 0.022 0h127.999v-431.944h-54.067v380.928c0 11.028-8.94 19.968-19.968 19.968s-19.968-8.94-19.968-19.968v0-517.079c0-0.037 0-0.080 0-0.123 0-10.971 8.894-19.866 19.866-19.866 0 0 0 0 0 0h338.125v-67.994h-78.029c-0.006 0-0.013 0-0.021 0-11.059 0-20.027-8.953-20.050-20.007v-79.997c0.023-11.056 8.991-20.009 20.050-20.009 0.007 0 0.014 0 0.022 0h356.146c10.974 0.011 19.866 8.91 19.866 19.886 0 0.043 0 0.086 0 0.13v-0.007 79.995c0 0.037 0 0.080 0 0.123 0 10.976-8.892 19.875-19.865 19.886h-78.030v67.994h337.92c0 0 0 0 0 0 10.971 0 19.866 8.894 19.866 19.866 0 0.043 0 0.086 0 0.13v-0.007 96.215h7.987c25.426 0.058 46.022 20.654 46.080 46.074v239.786c-0.023 25.452-20.633 46.083-46.074 46.141h-0.006zM39.936 752.005v167.936h168.141v-107.868l-30.515 30.433c-3.617 3.616-8.613 5.852-14.131 5.852s-10.514-2.236-14.131-5.852l-90.522-90.562h-18.842zM115.302 752.005l48.128 48.128 44.646-44.564v-3.564h-92.774zM451.994 124.006h120.013v-67.994h-120.013v67.994zM670.106 16.015v-40.018h-316.006v40.018h316.006zM875.93 749.998h54.067v-177.869h-54.067v177.869zM977.92 532.132c3.393 0 6.144-2.751 6.144-6.144v0-239.78c0-3.393-2.751-6.144-6.144-6.144h-197.632c-0.016 0-0.035 0-0.054 0-5.502 0-10.482-2.239-14.076-5.856l-0.001-0.001-38.093-38.134-38.298 38.134c-3.596 3.618-8.575 5.857-14.077 5.857-0.019 0-0.038 0-0.057 0h-45.463c-3.393 0-6.144 2.751-6.144 6.144v0 239.78c0 3.393 2.751 6.144 6.144 6.144h347.75zM883.917 432.026l-76.595 49.009c-6.079 3.931-13.509 6.267-21.484 6.267-22.046 0-39.922-17.854-39.956-39.892v-98c0.008-15.050 8.361-28.148 20.683-34.917l0.207-0.104c5.507-3.093 12.087-4.914 19.093-4.914 7.974 0 15.397 2.36 21.609 6.42l-0.151-0.093 76.595 48.988c11.038 7.268 18.223 19.604 18.223 33.618s-7.185 26.35-18.073 33.525l-0.151 0.093zM786.022 349.553v97.71l76.186-48.865zM523.059 615.793l-18.022 16.384c0.205 2.621 0.205 5.243 0.205 7.844s0 5.243-0.205 7.864l18.022 16.384c4.040 3.681 6.565 8.965 6.565 14.838 0 3.683-0.993 7.133-2.725 10.099l0.051-0.095-29.286 50.627c-3.544 6.025-9.995 10.005-17.376 10.005-2.207 0-4.332-0.356-6.318-1.014l0.142 0.041-22.938-7.475c-3.827 2.559-8.319 5.174-12.968 7.52l-0.753 0.344-5.12 23.757c-1.92 9.088-9.874 15.811-19.397 15.811-0.021 0-0.041 0-0.062 0h-58.57c-9.525-0.037-17.474-6.736-19.432-15.678l-0.024-0.132-5.12-23.757c-5.25-2.593-9.676-5.208-13.891-8.108l0.374 0.243-23.142 7.475c-1.845 0.617-3.969 0.973-6.176 0.973-7.381 0-13.832-3.98-17.324-9.911l-0.051-0.094-29.286-50.627c-1.681-2.871-2.674-6.322-2.674-10.004 0-5.873 2.525-11.157 6.549-14.824l18.243-16.398c-0.205-2.621-0.41-5.243-0.41-7.864s0.205-5.222 0.41-7.844l-18.227-16.384c-4.042-3.685-6.568-8.972-6.568-14.849 0-3.686 0.994-7.14 2.728-10.109l-0.051 0.095 29.286-50.627c3.546-6.015 9.992-9.987 17.366-9.987 2.211 0 4.339 0.357 6.328 1.017l-0.142-0.041 23.142 7.455c3.825-2.627 8.25-5.242 12.85-7.56l0.667-0.305 5.12-23.757c1.982-9.074 9.931-15.774 19.452-15.811h58.577c0.017 0 0.038 0 0.059 0 9.524 0 17.477 6.723 19.374 15.681l0.023 0.129 5.12 23.757c5.432 2.727 9.923 5.34 14.245 8.188l-0.524-0.324 22.938-7.455c1.848-0.619 3.975-0.976 6.186-0.976 7.374 0 13.82 3.972 17.314 9.894l0.051 0.094 29.286 50.627c1.683 2.873 2.676 6.327 2.676 10.014 0 5.877-2.526 11.164-6.552 14.835l-0.016 0.014zM464.282 652.657c0.652-3.832 1.024-8.247 1.024-12.749s-0.372-8.916-1.088-13.215l0.064 0.466c-0.165-0.959-0.259-2.064-0.259-3.192 0-5.854 2.545-11.113 6.589-14.732l0.019-0.017 13.517-12.288-13.107-22.63-17.408 5.632c-1.833 0.62-3.944 0.978-6.138 0.978-4.758 0-9.124-1.683-12.533-4.487l0.034 0.027c-6.343-5.135-13.652-9.429-21.556-12.543l-0.562-0.195c-6.246-2.448-10.874-7.801-12.265-14.35l-0.023-0.13-3.891-17.92h-26.214l-3.686 17.92c-1.501 6.697-6.191 12.043-12.356 14.433l-0.137 0.047c-8.399 3.255-15.648 7.554-22.046 12.845l0.132-0.106c-3.433 2.772-7.85 4.449-12.659 4.449-2.209 0-4.335-0.354-6.325-1.008l0.143 0.041-17.408-5.632-13.107 22.63 13.517 12.288c4.082 3.553 6.647 8.757 6.647 14.561 0 1.194-0.109 2.363-0.317 3.498l0.018-0.118c-0.521 3.829-0.819 8.254-0.819 12.749s0.298 8.92 0.874 13.257l-0.055-0.508c0.189 1.014 0.297 2.18 0.297 3.372 0 5.806-2.565 11.012-6.623 14.549l-0.023 0.020-13.517 12.288 13.107 22.63 17.408-5.632c1.846-0.612 3.971-0.965 6.178-0.965 4.81 0 9.228 1.677 12.702 4.477l-0.039-0.030c6.263 5.193 13.513 9.493 21.381 12.556l0.533 0.183c6.293 2.449 10.978 7.789 12.467 14.344l0.026 0.135 3.686 17.94h26.214l3.891-17.94c1.429-6.672 6.051-12.018 12.153-14.432l0.135-0.047c8.467-3.3 15.778-7.595 22.272-12.859l-0.154 0.121c3.385-2.769 7.757-4.448 12.52-4.448 2.186 0 4.29 0.354 6.257 1.007l-0.14-0.040 17.408 5.632 13.107-22.63-13.517-12.288c-4.059-3.639-6.601-8.898-6.601-14.752 0-1.112 0.092-2.202 0.268-3.263l-0.016 0.115zM404.89 866.099c-3.608 3.618-8.598 5.857-14.111 5.857-0.007 0-0.014 0-0.021 0h0.001c-5.506-0.078-10.479-2.298-14.136-5.862l0.004 0.004c-3.549-3.651-5.738-8.641-5.738-14.141s2.188-10.491 5.742-14.146l-0.005 0.005c3.657-3.552 8.627-5.77 14.114-5.857h0.017c5.519 0.004 10.514 2.242 14.131 5.857v0c3.679 3.599 5.961 8.614 5.961 14.162s-2.281 10.563-5.957 14.158l-0.004 0.004zM331.571 866.099c-3.652 3.622-8.681 5.861-14.234 5.861s-10.582-2.239-14.235-5.862l0.001 0.001c-3.549-3.651-5.738-8.641-5.738-14.141s2.188-10.491 5.742-14.146l-0.005 0.005c3.652-3.622 8.681-5.861 14.234-5.861s10.582 2.239 14.235 5.862l-0.001-0.001c3.561 3.653 5.758 8.651 5.758 14.162s-2.196 10.509-5.762 14.166l0.004-0.004zM768 871.956h-303.718c-10.772-0.356-19.369-9.173-19.369-19.999s8.597-19.643 19.336-19.998l0.033-0.001h303.718c0.27-0.013 0.587-0.020 0.905-0.020 11.051 0 20.009 8.958 20.009 20.009s-8.958 20.009-20.009 20.009c-0.318 0-0.635-0.007-0.95-0.022l0.045 0.002zM89.907 892.109c-3.615 3.62-8.611 5.86-14.131 5.86s-10.517-2.24-14.131-5.86v0c-3.667-3.597-5.94-8.604-5.94-14.141s2.273-10.544 5.937-14.138l0.003-0.003c3.615-3.62 8.611-5.86 14.131-5.86s10.517 2.24 14.131 5.86v0c3.679 3.599 5.961 8.614 5.961 14.162s-2.281 10.563-5.957 14.158l-0.004 0.004z" />
<glyph unicode="&#xe951;" glyph-name="contact-address" data-tags="contact-address" horiz-adv-x="1192" d="M1172.861-64h-1154.26c-10.273 0-18.602 8.328-18.602 18.602v0 74.407c0 0.167 0 0.334 0 0.525s0.262 1.025 0.334 1.598c0.319 2.633 1.165 5.015 2.43 7.116l-0.045-0.081c0.215 0.358 0.143 0.787 0.382 1.145l186.184 279.216c0.386 0.433 0.783 0.83 1.202 1.204l0.014 0.013c0.829 1.030 1.737 1.937 2.732 2.74l0.034 0.027c0.81 0.676 1.716 1.293 2.679 1.817l0.087 0.043c0.943 0.51 2.048 0.979 3.2 1.345l0.139 0.038c1.035 0.331 2.249 0.583 3.5 0.709l0.077 0.006c0.62 0 1.169 0.358 1.812 0.358h230.208c-69.47 92.365-137.104 213.347-137.104 335.069 0 164.52 133.37 297.89 297.89 297.89s297.89-133.37 297.89-297.89v0c0-121.627-67.634-242.705-137.104-335.069h230.208c0.596 0 1.121-0.286 1.717-0.334 1.397-0.151 2.667-0.42 3.886-0.802l-0.142 0.038c1.235-0.382 2.293-0.827 3.297-1.361l-0.101 0.049c1.096-0.594 2.041-1.234 2.916-1.956l-0.031 0.024c0.995-0.817 1.878-1.7 2.668-2.662l0.026-0.033c0.382-0.477 0.906-0.739 1.24-1.24l186.184-279.216c0.238-0.358 0.191-0.811 0.405-1.192 1.203-2.009 2.046-4.371 2.375-6.896l0.010-0.092c0-0.572 0.31-1.049 0.334-1.622 0-0.191 0-0.334 0-0.525v-74.478c-0.041-10.243-8.353-18.53-18.602-18.53-0.025 0-0.050 0-0.076 0h0.004zM165.031 215.216l-111.729-167.535h118.216l79.868 167.535h-86.355zM856.346 661.967c0 143.96-116.703 260.662-260.662 260.662s-260.662-116.703-260.662-260.662v0c0-173.258 155.873-352.955 231.997-430.486 3.354-1.781 6.027-4.461 7.75-7.722l0.048-0.1c8.18-8.18 15.478-15.287 20.867-20.366 53.182 50.129 260.662 258.826 260.662 458.627zM548.893 196.591h-133.431l-16.026-55.829h392.496l-16.026 55.829h-133.431c-19.079-18.84-32.195-30.55-34.509-32.601-3.255-2.874-7.558-4.628-12.27-4.628s-9.015 1.754-12.29 4.646l0.020-0.017c-2.337 2.003-15.478 13.713-34.532 32.553zM976.709 289.599h-72.237l44.358-93.009h89.932zM1063.588 159.292h-126.396c-3.344 0.087-6.443 1.060-9.094 2.692l0.079-0.045c-0.611 0.364-1.132 0.726-1.628 1.12l0.030-0.023c-2.349 1.626-4.253 3.729-5.605 6.179l-0.047 0.093c-0.143 0.286-0.453 0.382-0.596 0.668l-57.021 119.623h-135.936c-17.028-20.724-33.602-39.564-48.722-55.853h111.396c0.382 0 0.715-0.191 1.121-0.215 1.311-0.132 2.508-0.385 3.656-0.75l-0.126 0.035c2.371-0.378 4.454-1.407 6.117-2.896l-0.011 0.010c1.129-0.761 2.113-1.594 2.998-2.521l0.007-0.007c0.604-0.703 1.164-1.482 1.652-2.309l0.041-0.076c0.746-1.085 1.404-2.328 1.913-3.644l0.042-0.124c0-0.31 0.358-0.549 0.453-0.882l26.71-93.009c0.117-0.749 0.186-1.617 0.191-2.499v-0.005c0.226-0.746 0.41-1.635 0.517-2.548l0.007-0.075c0-0.382-0.191-0.715-0.215-1.121-0.139-1.365-0.4-2.611-0.776-3.807l0.036 0.134c-0.292-1.275-0.66-2.382-1.121-3.439l0.048 0.124c-0.605-1.070-1.236-1.99-1.937-2.851l0.029 0.037c-0.725-1.054-1.51-1.975-2.379-2.808l-0.006-0.006c-0.789-0.639-1.67-1.239-2.599-1.763l-0.095-0.049c-1.016-0.694-2.179-1.311-3.409-1.795l-0.12-0.042c-0.358 0-0.62-0.382-0.978-0.501-1.521-0.452-3.27-0.713-5.079-0.715h-442.030c-1.81 0.002-3.558 0.263-5.211 0.748l0.131-0.033c-0.358 0-0.62 0.382-0.978 0.501-1.35 0.525-2.513 1.143-3.591 1.876l0.062-0.040c-1.014 0.552-1.889 1.153-2.695 1.832l0.024-0.020c-0.873 0.847-1.657 1.776-2.345 2.776l-0.040 0.062c-0.657 0.81-1.273 1.714-1.81 2.669l-0.050 0.097c-0.434 0.954-0.811 2.077-1.074 3.243l-0.023 0.12c-0.337 1.053-0.597 2.29-0.732 3.566l-0.007 0.083c0 0.405-0.215 0.739-0.215 1.121 0.117 0.991 0.302 1.88 0.554 2.74l-0.029-0.117c0.005 0.887 0.074 1.755 0.203 2.602l-0.012-0.098 26.71 93.009c0 0.334 0.358 0.572 0.453 0.882 0.545 1.43 1.203 2.665 1.993 3.802l-0.038-0.057c0.532 0.954 1.085 1.773 1.698 2.541l-0.028-0.037c0.919 0.941 1.925 1.788 3.008 2.532l0.068 0.044c0.739 0.596 1.566 1.157 2.438 1.647l0.090 0.047c1.012 0.457 2.206 0.859 3.445 1.143l0.132 0.025c1.001 0.311 2.183 0.555 3.398 0.684l0.083 0.007c0.382 0 0.715 0.215 1.121 0.215h111.3c-15.12 16.288-31.694 35.129-48.722 55.853h-249.382l-24.826-37.227h91.077s0.191 0 0.31 0c1.35-0.138 2.58-0.39 3.763-0.752l-0.138 0.036c1.393-0.209 2.639-0.533 3.829-0.973l-0.132 0.043c0.050 0.007 0.108 0.010 0.167 0.010s0.117-0.004 0.174-0.011l-0.007 0.001c0.747-0.464 1.393-0.943 1.997-1.47l-0.018 0.015c1.345-0.796 2.509-1.679 3.562-2.679l-0.008 0.008c0.61-0.76 1.186-1.61 1.691-2.504l0.049-0.095c0.756-0.995 1.434-2.123 1.982-3.323l0.046-0.111c0.314-0.99 0.557-2.155 0.685-3.354l0.007-0.080c0.287-0.924 0.514-2.016 0.637-3.14l0.007-0.080c0-0.167 0-0.286 0-0.453-0.14-1.112-0.34-2.098-0.607-3.056l0.035 0.147c-0.211-1.609-0.596-3.066-1.141-4.442l0.044 0.125s0-0.215 0-0.31l-84.924-178.147h765.818l-22.823 47.864s0 0.262 0 0.405c-0.314 0.896-0.587 1.972-0.771 3.078l-0.016 0.118c-0.48 1.096-0.884 2.382-1.149 3.718l-0.020 0.121s0 0.191 0 0.31c0.117 0.832 0.258 1.543 0.436 2.24l-0.031-0.141c0.114 1.742 0.455 3.366 0.993 4.898l-0.039-0.128c0.462 0.961 0.954 1.782 1.512 2.552l-0.033-0.048c0.703 1.323 1.495 2.465 2.403 3.503l-0.018-0.021c0.804 0.733 1.693 1.402 2.642 1.984l0.076 0.044c0.79 0.726 1.664 1.388 2.597 1.961l0.074 0.042c0.167 0 0.334 0 0.477 0 0.841 0.308 1.844 0.573 2.877 0.749l0.104 0.015c1.252 0.416 2.71 0.72 4.218 0.853l0.074 0.005h116.118zM1113.241 84.837h-111.157l17.743-37.227h118.24zM1154.236 10.383h-1117.104v-37.227h1117.128v37.251zM483.978 512.987c-0.199-0.008-0.432-0.012-0.666-0.012-10.287 0-18.626 8.339-18.626 18.626s8.339 18.626 18.626 18.626c0.234 0 0.468-0.004 0.7-0.013l-0.034 0.001v102.095l-7.775-5.557c-3.099-2.388-7.037-3.827-11.31-3.827-10.287 0-18.626 8.339-18.626 18.626 0 6.431 3.259 12.1 8.215 15.447l0.066 0.042 29.429 21.034v56.902c0.369 9.996 8.561 17.959 18.614 17.959s18.245-7.963 18.613-17.926l0.001-0.034v-30.311l63.651 45.455c0.215 0.143 0.453 0.143 0.644 0.286 1.765 0.879 3.97 1.806 6.236 2.606l0.442 0.136c0.511 0.045 1.105 0.071 1.705 0.071s1.194-0.026 1.781-0.077l-0.076 0.005c0.543 0.057 1.174 0.090 1.812 0.090s1.269-0.033 1.89-0.096l-0.078 0.006c1.23-0.333 2.292-0.74 3.3-1.239l-0.104 0.047c1.339-0.445 2.49-0.97 3.572-1.599l-0.090 0.049c0.191-0.143 0.429-0.143 0.62-0.286l130.331-93.009c5.022-3.389 8.281-9.058 8.281-15.489 0-10.287-8.339-18.626-18.626-18.626-4.274 0-8.211 1.439-11.354 3.86l0.044-0.032-7.798 5.557v-102.095c0.199 0.008 0.432 0.012 0.666 0.012 10.287 0 18.626-8.339 18.626-18.626s-8.339-18.626-18.626-18.626c-0.234 0-0.468 0.004-0.7 0.013l0.034-0.001h-223.411zM670.162 678.9l-74.478 53.182-74.478-53.182v-128.781h55.924v37.227c0 10.287 8.339 18.626 18.626 18.626s18.626-8.339 18.626-18.626v0-37.227h55.757v128.781z" />
<glyph unicode="&#xe952;" glyph-name="contact-email" data-tags="contact-email" horiz-adv-x="985" d="M839.818 788.972h-35.446v59.569l59.746 29.775c5.306 2.681 8.881 8.091 8.881 14.335 0 0 0 0.001 0 0.001v0 51.318c-0.011 8.855-7.192 16.030-16.049 16.030-0.014 0-0.028 0-0.042 0h-154.445c-0.012 0-0.026 0-0.039 0-8.857 0-16.038-7.174-16.049-16.029v-154.999h-387.052c-0.024 0-0.052 0-0.079 0-79.774 0-144.472-64.546-144.718-144.262v-43.859h-69.849c-8.829-0.088-15.968-7.205-16.088-16.018v-240.513h-36.47v35.269c0 8.885-7.203 16.089-16.089 16.089s-16.089-7.203-16.089-16.089v0-51.2c0.011-8.866 7.201-16.049 16.069-16.049 0.007 0 0.014 0 0.021 0h430.099v-52.362c0-8.885 7.203-16.089 16.089-16.089s16.089 7.203 16.089 16.089v0 52.362h36.47v-344.182h-36.47v206.119c0 8.885-7.203 16.089-16.089 16.089s-16.089-7.203-16.089-16.089v0-222.326c0.022-8.858 7.208-16.030 16.069-16.030 0.007 0 0.014 0 0.021 0h240.245c0.012 0 0.026 0 0.039 0 8.857 0 16.038 7.174 16.049 16.029v360.291h249.915c0.006 0 0.013 0 0.020 0 8.868 0 16.058 7.183 16.069 16.048v316.397c-0.246 79.739-64.944 144.286-144.718 144.286-0.007 0-0.014 0-0.021 0h0.001zM718.612 927.941h122.25v-25.364l-59.746-29.775c-5.306-2.681-8.881-8.091-8.881-14.335 0 0 0-0.001 0-0.001v0-247.985c0-14.813-12.008-26.821-26.821-26.821s-26.821 12.008-26.821 26.821v0 317.46zM417.201 568.793l-143.754-117.189-143.754 117.189h287.39zM446.188 344.3h-345.364v206.769l162.501-132.51c2.762-2.227 6.314-3.575 10.181-3.575s7.419 1.348 10.212 3.599l-0.031-0.024 162.501 132.51v-206.769zM686.434-31.961h-19.298v86.646c0 8.885-7.203 16.089-16.089 16.089s-16.089-7.203-16.089-16.089v0-86.646h-87.946v344.202h87.946v-172.091c0-8.885 7.203-16.089 16.089-16.089s16.089 7.203 16.089 16.089v0 172.091h19.298v-344.182zM952.438 344.3h-405.425v172.091c0 8.885-7.203 16.089-16.089 16.089s-16.089-7.203-16.089-16.089v0-172.091h-36.47v240.522c-0.121 8.824-7.259 15.942-16.080 16.029h-275.7v43.835c0.179 62.030 50.506 112.246 112.561 112.246 0.021 0 0.042 0 0.063 0h102.968c0.018 0 0.039 0 0.060 0 62.055 0 112.382-50.216 112.561-112.229v-42.789c0-8.885 7.203-16.089 16.089-16.089s16.089 7.203 16.089 16.089v0 42.772c-0.017 45.281-20.95 85.669-53.661 112.031l-0.277 0.216h193.359v-146.432c1.667-31.288 27.444-56.027 58.998-56.027s57.331 24.739 58.992 55.88l0.006 0.148v146.432h35.446c0.023 0 0.051 0 0.079 0 62.051 0 112.373-50.218 112.541-112.23v-300.383zM582.4 275.889c-0.012 0-0.026 0-0.039 0-8.857 0-16.038-7.174-16.049-16.029v-188.141c0-8.885 7.203-16.089 16.089-16.089s16.089 7.203 16.089 16.089v0 188.14c0 0 0 0 0 0 0 8.864-7.185 16.049-16.049 16.049-0.014 0-0.028 0-0.042 0h0.002zM745.433 652.13c-0.012 0-0.026 0-0.039 0-8.857 0-16.038-7.174-16.049-16.029v-17.094c0-8.885 7.203-16.089 16.089-16.089s16.089 7.203 16.089 16.089v0 17.093c0 0 0 0 0 0 0 8.864-7.185 16.049-16.049 16.049-0.014 0-0.028 0-0.042 0h0.002z" />
<glyph unicode="&#xe953;" glyph-name="contact-phone" data-tags="contact-phone" d="M395.919 896h-144.015c-10.772-0.356-19.369-9.173-19.369-19.999s8.597-19.643 19.336-19.998l0.033-0.001h143.974c10.781 0.344 19.39 9.166 19.39 19.999 0 10.818-8.586 19.632-19.315 19.997l-0.033 0.001zM338.063 46.592c-3.621 3.623-8.625 5.864-14.152 5.864-11.051 0-20.009-8.958-20.009-20.009s8.958-20.009 20.009-20.009c11.048 0 20.005 8.955 20.009 20.002v0c-0.015 5.523-2.25 10.522-5.858 14.153l0.001-0.001zM895.242 324.219l-73.564 127.447c17.819 16.512 28.935 40.039 28.935 66.163 0 49.767-40.345 90.112-90.112 90.112-9.532 0-18.718-1.48-27.341-4.222l0.638 0.175-73.544 127.427c-3.519 6.023-9.953 10.006-17.317 10.006-6.382 0-12.066-2.991-15.726-7.648l-0.033-0.043-229.007-292.495-96.113-55.501c-35.143-20.094-58.443-57.355-58.443-100.057 0-63.442 51.43-114.872 114.872-114.872 21.549 0 41.712 5.934 58.945 16.256l-0.522-0.29 11.448 6.615 39.916-69.161h-428.278v667.935h567.869v-6.144c-0.007-0.191-0.010-0.415-0.010-0.64 0-11.051 8.958-20.009 20.009-20.009s20.009 8.958 20.009 20.009c0 0.225-0.004 0.449-0.011 0.673l0.001-0.033v95.478c0 43.382-35.145 78.556-78.516 78.602h-490.849c-43.338-0.058-78.453-35.181-78.5-78.516v-866.964c0.047-43.34 35.162-78.462 78.494-78.52h490.85c43.338 0.058 78.453 35.181 78.5 78.516v246.83l232.878 33.116c9.772 1.429 17.192 9.753 17.192 19.81 0 3.677-0.992 7.123-2.723 10.083l0.051-0.095zM39.997 881.439c0.023 21.259 17.245 38.488 38.499 38.523h490.847c21.257-0.035 38.479-17.264 38.502-38.521v-49.482h-567.849v49.48zM773.407 566.19c21.571-5.912 37.16-25.341 37.16-48.411 0-11.231-3.694-21.598-9.934-29.954l0.094 0.132-45.978 79.647c1.715 0.208 3.701 0.327 5.714 0.327 4.603 0 9.061-0.62 13.295-1.781l-0.352 0.082zM396.923 221.327c-10.501-5.96-23.066-9.472-36.452-9.472-41.352 0-74.875 33.523-74.875 74.875 0 27.175 14.477 50.968 36.138 64.089l0.334 0.188 82.145 47.432 74.854-129.679zM462.991 213.279l36.065 20.828 47.247-81.92-36.065-20.808zM607.867 14.479c-0.023-21.259-17.245-38.488-38.499-38.523h-490.868c-21.257 0.035-38.479 17.264-38.502 38.521v69.634h567.869v-69.632zM607.867 124.129h-30.331l6.144 3.502c6.023 3.524 10.005 9.961 10.005 17.329 0 3.678-0.993 7.125-2.724 10.086l0.051-0.095-52.429 90.808 69.366 9.851v-131.482zM516.977 283.095l-81.367 140.964 145.408 185.754 169.431-293.519zM793.149 322.355l-185.528 321.413 32.768 41.902 205.435-355.779zM1021.297 667.73c-3.526 6.015-9.959 9.99-17.32 9.99-3.682 0-7.132-0.995-10.095-2.73l0.095 0.051-98.038-56.627c-6.020-3.521-9.999-9.954-9.999-17.316 0-11.042 8.951-19.993 19.993-19.993 3.68 0 7.127 0.994 10.089 2.728l-0.094-0.051 98.038 56.627c6.033 3.522 10.023 9.964 10.023 17.339 0 3.691-0.999 7.148-2.742 10.116l0.051-0.094zM840.315 755.528c-1.578 0.448-3.39 0.705-5.263 0.705-9.207 0-16.961-6.225-19.28-14.696l-0.033-0.14-14.336-53.371c-0.525-1.703-0.827-3.661-0.827-5.689 0-11.039 8.949-19.988 19.988-19.988 9.425 0 17.327 6.523 19.436 15.302l0.028 0.136 14.336 53.35c0.429 1.545 0.675 3.319 0.675 5.15 0 9.166-6.17 16.892-14.583 19.249l-0.141 0.034zM993.014 493.896l-55.112 14.766c-1.554 0.434-3.339 0.683-5.181 0.683-11.043 0-19.996-8.952-19.996-19.996 0-9.2 6.214-16.95 14.674-19.28l0.14-0.033 55.132-14.787c1.553-0.424 3.337-0.67 5.178-0.676h0.003c0.025 0 0.054 0 0.083 0 11.051 0 20.009 8.958 20.009 20.009 0 9.245-6.27 17.026-14.791 19.322l-0.14 0.032zM379.249 733.635h-275.907c-11.051 0-20.009-8.958-20.009-20.009s8.958-20.009 20.009-20.009h275.907c11.062 0 20.029 8.967 20.029 20.029s-8.967 20.029-20.029 20.029v0zM393.4 631.767c-3.621 3.623-8.625 5.864-14.152 5.864-11.051 0-20.009-8.958-20.009-20.009s8.958-20.009 20.009-20.009c11.048 0 20.005 8.955 20.009 20.002v0c-0.003 5.538-2.24 10.553-5.858 14.194l0.001-0.001zM296.612 637.624h-193.27c-0.191 0.007-0.415 0.010-0.64 0.010-11.051 0-20.009-8.958-20.009-20.009s8.958-20.009 20.009-20.009c0.225 0 0.449 0.004 0.673 0.011l-0.033-0.001h193.27c11.056 0 20.019 8.963 20.019 20.019s-8.963 20.019-20.019 20.019v0zM331.756 541.635h-151.552c-11.051 0-20.009-8.958-20.009-20.009s8.958-20.009 20.009-20.009h151.552c0.003 0 0.007 0 0.010 0 11.062 0 20.029 8.967 20.029 20.029 0 11.058-8.962 20.024-20.019 20.029h-0.001zM104.1 541.635h-0.942c-11.051 0-20.009-8.958-20.009-20.009s8.958-20.009 20.009-20.009h0.942c11.062 0 20.029 8.967 20.029 20.029s-8.967 20.029-20.029 20.029v0z" />
</font>
</defs>
</svg>
